[ Сегодня на трекере фрилич! Идет свободное скачивание без начисления Download ]

Логово зверя / Haunt (Мак Картер / Mac Carter) [2013 г., ужасы, детектив, HDRip] Dub + Original (Eng)

 

Создавать темы 20-Дек-2014 17:10

-Логово зверя / Haunt-- -Производство: США / QED International, Revolver Picture Company
Год выпуска: 2013 г.
Жанр: ужасы, детектив
Продолжительность: 01:25:37
Мировая премьера: 7 февраля 2014,
Российская премьера: 27 ноября 2014
Перевод: Профессиональный (полное дублирование) [Line]
Оригинальный аудиопоток: английский-Режиссер: Мак Картер / Mac Carter-В ролях: Харрисон Гилбертсон, Лиана Либерато, Джеки Уивер, Айони Скай, Даниэль Чачран, Карл Хадра, Себастьян Майкл Барр, Брук Келли, Брайан Уиммер, Элла Харрис-Описание: Семья 18-ти летнего Эвана переезжает в новый дом, прошлые владельцы которого погибли при странных обстоятельствах. Единственная выжившая хозяйка дома — Джанет отказывается раскрывать тайну трагической гибели родных. Отправившись как-то раз ночью на прогулку, Эван встречает прекрасную девушку Саманту. Подростки начинают тесно общаться. Их общий интерес — таинственный дом семьи Ашер. Сэм рассказывает Эвану о том, что случилось с прошлыми владельцами дома. Герои решают выйти с призраками на прямой контакт. Но становится очевидно: не все тайны стоит разгадывать, ибо за ними кроется нечто совершенно ужасающее…- -Качество видео: HDRip
Контейнер: AVI
Видео кодек: XviD
Аудио кодек: AC3
Видео: 720x304 (2.37:1), 24.000 fps, XviD build 50 ~1624 kbps avg, 0.31 bit/pixel
Аудио: 44.1 kHz, AC3 Dolby Digital, 2/0 (L,R) ch, ~256 kbps Russian
Аудио #2: 48 kHz, AC3 Dolby Digital, 3/2 (L,C,R,l,r) + LFE ch, ~448 kbps English
Cубтитры: отсутствуют

Media Info

D:\Torrents\Haunt.2013.D.HDRip.avi
General
Complete name : D:\Torrents\Haunt.2013.D.HDRip.avi
Format : AVI
Format/Info : Audio Video Interleave
File size : 1.37 GiB
Duration : 1h 23mn
Overall bit rate : 2 343 Kbps
Movie name : Haunt.2013.D.HDRip
Director : TimeMashine&Kolbas
Writing application : VirtualDubMod 1.5.10.3 | www.virtualdub-fr.org || (build 2550/release)
Video #0
ID : 0
Format : MPEG-4 Visual
Format profile : Advanced [email protected]
Format settings, BVOP : 3
Format settings, QPel : No
Format settings, GMC : No warppoints
Format settings, Matrix : Custom
Codec ID : XVID
Codec ID/Hint : XviD
Duration : 1h 23mn
Bit rate : 1 625 Kbps
Width : 720 pixels
Height : 304 pixels
Display aspect ratio : 2.35:1
Frame rate : 24.000 fps
Color space : YUV
Chroma subsampling : 4:2:0
Bit depth : 8 bits
Scan type : Progressive
Compression mode : Lossy
Bits/(Pixel*Frame) : 0.309
Stream size : 972 MiB (69%)
Writing library : XviD 1.2.1 (UTC 2008-12-04)
Audio #1
ID : 1
Format : AC-3
Format/Info : Audio Coding 3
Mode extension : CM (complete main)
Format settings, Endianness : Big
Codec ID : 2000
Duration : 1h 23mn
Bit rate mode : Constant
Bit rate : 256 Kbps
Channel count : 2 channels
Channel positions : Front: L R
Sampling rate : 44.1 KHz
Bit depth : 16 bits
Compression mode : Lossy
Stream size : 153 MiB (11%)
Alignment : Split accross interleaves
Interleave, duration : 42 ms (1.00 video frame)
Interleave, preload duration : 500 ms
Audio #2
ID : 2
Format : AC-3
Format/Info : Audio Coding 3
Mode extension : CM (complete main)
Format settings, Endianness : Big
Codec ID : 2000
Duration : 1h 23mn
Bit rate mode : Constant
Bit rate : 448 Kbps
Channel count : 6 channels
Channel positions : Front: L C R, Side: L R, LFE
Sampling rate : 48.0 KHz
Bit depth : 16 bits
Compression mode : Lossy
Stream size : 268 MiB (19%)
Alignment : Split accross interleaves
Interleave, duration : 42 ms (1.00 video frame)
Interleave, preload duration : 500 ms

Скриншот c названием фильма

Скриншоты

Яндекс.Метрика
Рейтинг@Mail.ru