[ Сегодня на трекере фрилич! Идет свободное скачивание без начисления Download ]

(Hard Rock) Whitesnake - Live In 84 - Back To The Bone - Deluxe Edition - 2014 [FLAC, image+.cue, lossless]

 

Создавать темы 20-Дек-2014 17:04

-Whitesnake / Live In 84 - Back To The Bone - Deluxe Edition-- Год издания: 1984
Год переиздания: 2014
Страна: UK
Жанр: Hard Rock
Продолжительность: 01:11:59-Лейбл издания: Frontiers Records
Тип альбома: Live
Страна-выпуска диска: Italy
Номер по каталогу: FR CDVD 669
Формат: FLAC
Битрейт аудио: lossless
Тип рипа: image+.cue
Наличие сканов в содержимом раздачи: да

Трэклист

01.Gambler (03:26)
02.Guilty Of Love (05:02)
03.Love Ain't No Stranger (05:08)
04.Slow An' Easy (05:47)
05.Walking In The Shadow Of The Blues (04:02)
06.Ready An' Willing (04:33)
07.Guitar Solo (02:10)
08.Crying In The Rain (07:41)
09.Soldier Of Fortune (02:20)
10.Love Ain't No Stranger (04:38)
11.Ready An' Willing (05:06)
12.Slow An' Easy (05:45)
13.Gambler/Guilty Of Love/Love Aint' No Stranger/Ready An' Willing (Jon Lord's M... (16:16)

Лог создания рипа

Exact Audio Copy V1.0 beta 3 from 29. August 2011
Отчёт EAC об извлечении, выполненном 10. ноября 2014, 20:39
Whitesnake / Live In 84 - Back To The Bone - Deluxe Edition
Дисковод: PLEXTOR DVDR   PX-880SA   Adapter: 1  ID: 0
Режим чтения                 : Достоверность
Использование точного потока : Да
Отключение кэша аудио        : Да
Использование указателей C2  : Нет
Коррекция смещения при чтении                     : 6
Способность читать области Lead-in и Lead-out     : Нет
Заполнение пропущенных сэмплов тишиной            : Да
Удаление блоков с тишиной в начале и конце        : Нет
При вычислениях CRC использовались нулевые сэмплы : Да
Интерфейс                                         : Установленный внешний ASPI-интерфейс
Выходной формат          : Пользовательский кодировщик
Выбранный битрейт        : 1024 kBit/s
Качество                 : Высокий
Добавление ID3-тега      : Нет
Утилита сжатия           : C:\Program Files\Exact Audio Copy\FLAC\FLAC.EXE
Дополнительные параметры : -10 -V -T "ARTIST=%artist%" -T "ALBUM=%albumtitle%" -T "DATE=%year%" -T "GENRE=%genre%" -T "COMMENT=ripped by izia1956" %source%
TOC извлечённого CD
Трек |   Старт  | Длительность | Начальный сектор | Конечный сектор
---------------------------------------------------------------------
1  |  0:00.00 |    3:26.59   |           0      |      15508
2  |  3:26.59 |    5:02.06   |       15509      |      38164
3  |  8:28.65 |    5:08.48   |       38165      |      61312
4  | 13:37.38 |    5:47.69   |       61313      |      87406
5  | 19:25.32 |    4:02.02   |       87407      |     105558
6  | 23:27.34 |    4:33.10   |      105559      |     126043
7  | 28:00.44 |    2:10.01   |      126044      |     135794
8  | 30:10.45 |    7:41.37   |      135795      |     170406
9  | 37:52.07 |    2:20.13   |      170407      |     180919
10  | 40:12.20 |    4:38.02   |      180920      |     201771
11  | 44:50.22 |    5:06.50   |      201772      |     224771
12  | 49:56.72 |    5:45.25   |      224772      |     250671
13  | 55:42.22 |   16:16.64   |      250672      |     323935
Характеристики диапазона извлечения и сообщения об ошибках
Выбранный диапазон
Имя файла D:\BitComet\Whitesnake - Live In 84 - Back To The Bone - Deluxe Edition(2014)(flac)\Whitesnake - Live In 84 - Back To The Bone - Deluxe Edition.wav
Пиковый уровень 97.7 %
Скорость извлечения 7.6 X
Качество диапазона 99.9 %
CRC теста BC94003A
CRC копии BC94003A
Копирование... OK
Ошибок не произошло
AccurateRip: сводка
Трек  1  отсутствует в базе данных
Трек  2  отсутствует в базе данных
Трек  3  отсутствует в базе данных
Трек  4  отсутствует в базе данных
Трек  5  отсутствует в базе данных
Трек  6  отсутствует в базе данных
Трек  7  отсутствует в базе данных
Трек  8  отсутствует в базе данных
Трек  9  отсутствует в базе данных
Трек 10  отсутствует в базе данных
Трек 11  отсутствует в базе данных
Трек 12  отсутствует в базе данных
Трек 13  отсутствует в базе данных
Ни одного трека нет в базе AccurateRip
Конец отчёта
==== Контрольная сумма отчёта D601C4AD0D3A42989D1DBEE888C703C8963EB267D8BB2EC8A40CA592965FA9A6 ====

Индексная карта (non-compilant .cue)

REM GENRE "Hard Rock"
REM DATE 2014
REM DISCID B510DF0D
REM COMMENT "ExactAudioCopy v1.0b3"
PERFORMER "Whitesnake"
TITLE "Live In 84 - Back To The Bone - Deluxe Edition"
FILE "Whitesnake - Live In 84 - Back To The Bone - Deluxe Edition.flac" WAVE
TRACK 01 AUDIO
TITLE "Gambler"
PERFORMER "Whitesnake"
INDEX 01 00:00:00
TRACK 02 AUDIO
TITLE "Guilty Of Love"
PERFORMER "Whitesnake"
INDEX 01 03:26:59
TRACK 03 AUDIO
TITLE "Love Ain't No Stranger"
PERFORMER "Whitesnake"
INDEX 01 08:28:65
TRACK 04 AUDIO
TITLE "Slow An' Easy"
PERFORMER "Whitesnake"
INDEX 01 13:37:38
TRACK 05 AUDIO
TITLE "Walking In The Shadow Of The Blues"
PERFORMER "Whitesnake"
INDEX 01 19:25:32
TRACK 06 AUDIO
TITLE "Ready An' Willing"
PERFORMER "Whitesnake"
INDEX 01 23:27:34
TRACK 07 AUDIO
TITLE "Guitar Solo"
PERFORMER "Whitesnake"
INDEX 01 28:00:44
TRACK 08 AUDIO
TITLE "Crying In The Rain"
PERFORMER "Whitesnake"
INDEX 01 30:10:45
TRACK 09 AUDIO
TITLE "Soldier Of Fortune"
PERFORMER "Whitesnake"
INDEX 01 37:52:07
TRACK 10 AUDIO
TITLE "Love Ain't No Stranger"
PERFORMER "Whitesnake"
INDEX 01 40:12:20
TRACK 11 AUDIO
TITLE "Ready An' Willing"
PERFORMER "Whitesnake"
INDEX 01 44:50:22
TRACK 12 AUDIO
TITLE "Slow An' Easy"
PERFORMER "Whitesnake"
INDEX 01 49:56:72
TRACK 13 AUDIO
TITLE "Gambler/Guilty Of Love/Love Aint' No Stranger/Ready An' Willing (Jon Lord's M..."
PERFORMER "Whitesnake"
INDEX 01 55:42:22
-

Об альбоме (сборнике)

В честь 30-летия мультиплатинового альбома «Slide It In» 1984 года выпуска итальянский лейбл Frontiers Music представляет сборник раритетов под названием «Live In '84 — Back To The Bone», записанный в прославленном составе, который, по словам Дэвида Ковердэйла, стал началом самого «ураганного» периода в истории группы.
-
Яндекс.Метрика
Рейтинг@Mail.ru