База «Клейтон» / Basic (Джон МакТирнан / John McTiernan) [2003 г., триллер, драма, детектив, BDRip, 720р] Dub + MVO (SPDigital, LDV, Unknoun, PTP) + AVO (Володарский, Живов) + VO (Гаевский) + original (Eng) + Sub (Rus, Eng)

 

Создавать темы 20-Дек-2014 06:15

--База «Клейтон» / Basic-- Год выпуска: 2003
Производство: США, Phoenix Pictures, Intermedia Films
Жанр: триллер, драма, детектив
Продолжительность: 01:38:34
Перевод 1: Профессиональный (полное дублирование) лицензия
Перевод 2: Профессиональный (многоголосый закадровый) SP Digital
Перевод 3: Профессиональный (многоголосый закадровый) LDV
Перевод 4: Профессиональный (многоголосый закадровый) Неизвестный
Перевод 5: Профессиональный (многоголосый закадровый) Россия
Перевод 6: Авторский (одноголосый закадровый) Володарский
Перевод 7: Авторский (одноголосый закадровый) Живов
Перевод 8: Любительский (одноголосый закадровый) Гаевский (нецензурный)
Оригинальный аудиопоток: английский
Субтитры: Русские, английские
Навигация по главам: сохранена
Режиссер: Джон МакТирнан / John McTiernan
В ролях: Джон Траволта, Сэмюэл Л. Джексон, Конни Нилсен, Тимоти Дэйли, Джованни Рибизи, Брайан Ван Холт, Тэй Диггз, Дэш Майхок, Кристиан де ла Фуэнте, Розелин Санчес
Описание: Форт «Клейтон» — последняя американская военная база на Панамском канале. Во время секретной тренировочной миссии ураган настигает в джунглях группу спецназовцев и их легендарного инструктора Нэйтана Веста. Противоречивые показания двух вернувшихся на базу солдат ещё больше запутывают дело. Для расследования обстоятельств мистического исчезновения отряда приглашают агента отдела по борьбе с наркотиками Харди. Те, кто уцелел, не могут объяснить — в наркотиках ли дело… Или в чем-то другом. Все лгут…
Источник/Качество: BDRip, 720р | Кинопоиск |
Формат: MKV
Видео кодек: H.264
Аудио кодек: AC3
Видео: MPEG4 Video (H264) 1280x536, 23.976fps, 3 304 Кb/с, 0.201 bt/px
Аудио 1: 48 kHz, AC3, 2/0 (L,R) ~192.00 kbps avg – дубляж
Аудио 2: 48 kHz, AC3, 3/2 (L,C,R,l,r) + LFE ch, ~448.00 kbps avg – SP Digital
Аудио 3: 48 kHz, AC3, 3/2 (L,C,R,l,r) + LFE ch, ~448.00 kbps avg – LDV
Аудио 4: 48 kHz, AC3, 3/2 (L,C,R,l,r) + LFE ch, ~384.00 kbps avg – закадровый
Аудио 4: 48 kHz, AC3, 2/0 (L,R) ~192.00 kbps avg – Росиия
Аудио 5: 48 kHz, AC3, 3/2 (L,C,R,l,r) + LFE ch, ~640.00 kbps avg – Володарский
Аудио 6: 48 kHz, AC3, 3/2 (L,C,R,l,r) + LFE ch, ~448.00 kbps avg – Живов
Аудио 7: 48 kHz, AC3, 3/2 (L,C,R,l,r) + LFE ch, ~448.00 kbps avg – Гаевский
Аудио 8: 48 kHz, AC3, 3/2 (L,C,R,l,r) + LFE ch, ~448.00 kbps avg – оригинал
За перевод Володарского большое спасибо пользователям
Xerman13; Dunhill200; Лексал; С.Чистобаев; Luka69; Hattori Hanzo; Диммон; kondratzx; Role; AndreyTula; KpucTo161; Dr. Destructo; Gross1978
За остальные дороги спасибо tymoxa, sergey_n, AndreyTula, budulaj965
Релиз обновлен 13.12.2014 в 20:30. Заменен видеоряд, добавлена дорога РТР.
Релиз обновлен 19.12.2014 в 21:09. Заменен видеоряд

Лог х.264

x264 [info]: frame I:924 Avg QP:16.65 size: 62159
x264 [info]: frame P:32842 Avg QP:18.27 size: 32028
x264 [info]: frame B:107457 Avg QP:20.23 size: 13441
x264 [info]: consecutive B-frames: 3.9% 3.8% 9.0% 13.5% 15.5% 43.8% 6.1% 1.9% 1.5% 1.1%
x264 [info]: mb I I16..4: 9.4% 83.1% 7.5%
x264 [info]: mb P I16..4: 1.0% 21.4% 1.1% P16..4: 29.9% 34.0% 7.5% 0.5% 0.0% skip: 4.5%
x264 [info]: mb B I16..4: 0.1% 1.9% 0.1% B16..8: 41.9% 21.9% 2.5% direct: 7.0% skip:24.6% L0:48.3% L1:45.7% BI: 6.0%
x264 [info]: 8x8 transform intra:90.0% inter:66.0%
x264 [info]: coded y,uvDC,uvAC intra: 92.3% 85.1% 53.8% inter: 32.9% 34.9% 5.1%
x264 [info]: i16 v,h,dc,p: 17% 9% 8% 66%
x264 [info]: i8 v,h,dc,ddl,ddr,vr,hd,vl,hu: 9% 6% 7% 10% 14% 14% 13% 12% 14%
x264 [info]: i4 v,h,dc,ddl,ddr,vr,hd,vl,hu: 12% 6% 4% 9% 15% 16% 14% 12% 13%
x264 [info]: i8c dc,h,v,p: 39% 25% 18% 19%
x264 [info]: Weighted P-Frames: Y:34.6% UV:30.5%
x264 [info]: ref P L0: 39.5% 6.7% 18.3% 8.5% 6.8% 5.0% 4.5% 2.7% 2.6% 2.2% 2.1% 0.9% 0.3%
x264 [info]: ref B L0: 61.7% 14.6% 8.3% 4.4% 3.3% 2.7% 2.2% 1.5% 0.9% 0.4%
x264 [info]: ref B L1: 89.7% 10.3%
x264 [info]: kb/s:3468.28
x264 [total]: encoded 141223 frames, 1.38 fps, 3468.28 kb/s

Media Info

General
Unique ID : 182834248325588707900574103949741387966 (0x898C986A3B80D786BF9A7F90C7EBF0BE)
Complete name : G:\Temp\База «Клейтон» (Basic, 2003, BDRip, 720p) dub-4pm-Volodarsky-Jivov-Gaevsky-eng.mkv
Format : Matroska
Format version : Version 2
File size : 4.88 GiB
Duration : 1h 38mn
Overall bit rate : 7 094 Kbps
Movie name : rip by Gross
Encoded date : UTC 2014-12-18 04:01:50
Writing application : mkvmerge v4.7.0 ('Just Like You Imagined') сборка от Apr 21 2011 01:13:14
Writing library : libebml v1.2.0 + libmatroska v1.1.0
Video
ID : 1
Format : AVC
Format/Info : Advanced Video Codec
Format profile : [email protected]
Format settings, CABAC : Yes
Format settings, ReFrames : 11 frames
Codec ID : V_MPEG4/ISO/AVC
Duration : 1h 38mn
Width : 1 280 pixels
Height : 536 pixels
Display aspect ratio : 2.40:1
Frame rate mode : Constant
Frame rate : 23.976 fps
Color space : YUV
Chroma subsampling : 4:2:0
Bit depth : 8 bits
Scan type : Progressive
Writing library : x264 core 142 r2431 ac76440
Encoding settings : cabac=1 / ref=11 / deblock=1:-3:-3 / analyse=0x3:0x133 / me=umh / subme=11 / psy=1 / psy_rd=1.05:0.20 / mixed_ref=1 / me_range=32 / chroma_me=1 / trellis=2 / 8x8dct=1 / cqm=0 / deadzone=21,11 / fast_pskip=0 / chroma_qp_offset=-3 / threads=3 / lookahead_threads=2 / sliced_threads=0 / nr=0 / decimate=1 / interlaced=0 / bluray_compat=0 / constrained_intra=0 / bframes=9 / b_pyramid=2 / b_adapt=2 / b_bias=0 / direct=1 / weightb=1 / open_gop=0 / weightp=2 / keyint=250 / keyint_min=23 / scenecut=40 / intra_refresh=0 / rc=crf / mbtree=0 / crf=20.0 / qcomp=0.60 / qpmin=0 / qpmax=69 / qpstep=4 / ip_ratio=1.40 / pb_ratio=1.30 / aq=1:1.00
Language : English
Default : Yes
Forced : No
Audio #1
ID : 2
Format : AC-3
Format/Info : Audio Coding 3
Codec ID : A_AC3
Duration : 1h 38mn
Channel count : 2 channels
Sampling rate : 48.0 KHz
Compression mode : Lossy
Title : dub (Lisense)
Language : Russian
Default : Yes
Forced : Yes
Audio #2
ID : 3
Format : AC-3
Format/Info : Audio Coding 3
Mode extension : CM (complete main)
Format settings, Endianness : Big
Codec ID : A_AC3
Duration : 1h 38mn
Bit rate mode : Constant
Bit rate : 448 Kbps
Channel count : 6 channels
Channel positions : Front: L C R, Side: L R, LFE
Sampling rate : 48.0 KHz
Bit depth : 16 bits
Compression mode : Lossy
Stream size : 316 MiB (6%)
Title : pm (CP-Digital)
Language : Russian
Default : No
Forced : No
Audio #3
ID : 4
Format : AC-3
Format/Info : Audio Coding 3
Mode extension : CM (complete main)
Format settings, Endianness : Big
Codec ID : A_AC3
Duration : 1h 38mn
Bit rate mode : Constant
Bit rate : 448 Kbps
Channel count : 6 channels
Channel positions : Front: L C R, Side: L R, LFE
Sampling rate : 48.0 KHz
Bit depth : 16 bits
Compression mode : Lossy
Stream size : 316 MiB (6%)
Title : pm (LDV)
Language : Russian
Default : No
Forced : No
Audio #4
ID : 5
Format : AC-3
Format/Info : Audio Coding 3
Mode extension : CM (complete main)
Format settings, Endianness : Big
Codec ID : A_AC3
Duration : 1h 38mn
Bit rate mode : Constant
Bit rate : 384 Kbps
Channel count : 6 channels
Channel positions : Front: L C R, Side: L R, LFE
Sampling rate : 48.0 KHz
Bit depth : 16 bits
Compression mode : Lossy
Stream size : 271 MiB (5%)
Title : pm (Unknoun)
Language : Russian
Default : No
Forced : No
Audio #5
ID : 6
Format : AC-3
Format/Info : Audio Coding 3
Mode extension : CM (complete main)
Format settings, Endianness : Big
Codec ID : A_AC3
Duration : 1h 38mn
Bit rate mode : Constant
Bit rate : 192 Kbps
Channel count : 2 channels
Channel positions : Front: L R
Sampling rate : 48.0 KHz
Bit depth : 16 bits
Compression mode : Lossy
Stream size : 135 MiB (3%)
Title : pm (Россия)
Language : Russian
Default : No
Forced : No
Audio #6
ID : 7
Format : AC-3
Format/Info : Audio Coding 3
Mode extension : CM (complete main)
Format settings, Endianness : Big
Codec ID : A_AC3
Duration : 1h 38mn
Bit rate mode : Constant
Bit rate : 640 Kbps
Channel count : 6 channels
Channel positions : Front: L C R, Side: L R, LFE
Sampling rate : 48.0 KHz
Bit depth : 16 bits
Compression mode : Lossy
Stream size : 451 MiB (9%)
Title : A1 (Volodarsky)
Language : Russian
Default : No
Forced : No
Audio #7
ID : 8
Format : AC-3
Format/Info : Audio Coding 3
Mode extension : CM (complete main)
Format settings, Endianness : Big
Codec ID : A_AC3
Duration : 1h 38mn
Bit rate mode : Constant
Bit rate : 448 Kbps
Channel count : 6 channels
Channel positions : Front: L C R, Side: L R, LFE
Sampling rate : 48.0 KHz
Bit depth : 16 bits
Compression mode : Lossy
Stream size : 316 MiB (6%)
Title : A1 (Jivov)
Language : Russian
Default : No
Forced : No
Audio #8
ID : 9
Format : AC-3
Format/Info : Audio Coding 3
Codec ID : A_AC3
Duration : 1h 38mn
Channel count : 6 channels
Sampling rate : 48.0 KHz
Compression mode : Lossy
Title : A1 (Gaevsky)
Language : Russian
Default : No
Forced : No
Audio #9
ID : 10
Format : AC-3
Format/Info : Audio Coding 3
Codec ID : A_AC3
Duration : 1h 38mn
Channel count : 6 channels
Sampling rate : 48.0 KHz
Compression mode : Lossy
Title : original
Language : English
Default : No
Forced : No
Text #1
ID : 11
Format : UTF-8
Codec ID : S_TEXT/UTF8
Codec ID/Info : UTF-8 Plain Text
Language : Russian
Default : No
Forced : No
Text #2
ID : 12
Format : UTF-8
Codec ID : S_TEXT/UTF8
Codec ID/Info : UTF-8 Plain Text
Language : English
Default : No
Forced : No
Menu
00:00:00.000 : :Chapter 01
00:08:44.941 : :Chapter 02
00:18:42.746 : :Chapter 03
00:27:16.801 : :Chapter 04
00:37:45.888 : :Chapter 05
00:44:50.437 : :Chapter 06
00:54:50.078 : :Chapter 07
01:01:04.369 : :Chapter 08
01:06:34.156 : :Chapter 09
01:14:50.652 : :Chapter 10
01:24:17.886 : :Chapter 11
01:34:08.142 : :Chapter 12

Скриншоты

- -
Яндекс.Метрика
Рейтинг@Mail.ru