Бегущий в лабиринте / The Maze Runner (Уэс Болл / Wes Ball) [2014 г., фантастика, триллер, приключения, BDRip-AVC] Dub [Rus, Ukr] (Лицензия) + Original (Eng) + Sub (Rus, Eng)

 

Создавать темы 20-Дек-2014 05:59

-Бегущий в лабиринте / The Maze Runner- -«Только не останавливайся»- Производство: США, 20th Century Fox, Gotham Group, Temple Hill Entertainment
Год выпуска: 2014 г.
Жанр: фантастика, триллер, приключения
Продолжительность: 01:53:26
Мировая премьера: 11 сентября 2014
Российская премьера: 18 сентября 2014, «Двадцатый Век Фокс СНГ»
Дата выхода DVD: 18 декабря 2014, «Двадцатый Век Фокс СНГ»
Дата выхода Blu-Ray: 18 декабря 2014, «Двадцатый Век Фокс СНГ»
Перевод: Профессиональный (полное дублирование) [Rus, Ukr] (Лицензия)
Оригинальный аудиопоток: английский-Режиссер: Уэс Болл / Wes Ball
В ролях: Дилан О’Брайэн, Кая Скоделарио, Уилл Поултер, Томас Сэнгстер, Патришия Кларксон, Ки Хонг Ли, Амл Амин, Блейк Купер, Крис Шеффилд, Карл Грин-Описание: Главный герой — подросток Томас, который просыпается в лифте, но ничего не помнит, кроме своего имени. Он оказывается среди 60 подростков, научившихся выживать в замкнутом пространстве. Раз в 30 дней прибывает новый мальчик. Группа ребят проживает в «Приюте» уже три года. Они кормятся тем, что удается вырастить на земле, и пытаются найти выход из лабиринта, окружающего их место жительства. Но однажды появляется девочка в состоянии комы…- -Качество видео: BDRip-AVC
Контейнер: MKV
Видео кодек: MPEG4 AVC
Аудио кодек: AC3
Видео: 1024x424 (2.40:1), 1 897 Kbps, 23.976 fps, 0.182 bit/pix
Аудио: 448 Kbps, 6 ch, 48.0 KHz - Rus
Аудио #2: 192 Kbps, 2 ch, 48.0 KHz - Ukr
Аудио #3: 448 Kbps, 6 ch, 48.0 KHz - Eng
Cубтитры: Russian (Full), English (Full) [.SRT]

Знаете ли вы, что...

• Фильм снят по мотивам романа Джеймса Дашнера «Бегущий в лабиринте» (The Maze Runner, 2009).
• Из всех британских актеров только Томас Сэнгстер, который играет Ньюта, говорит в фильме с британским акцентом.
• Брентон Туэйтес и Коннор Паоло пробовались на роль Томаса, доставшуюся в итоге Дилану О’Брайену.
• Изначально Уэс Болл общался с представителями студии 20th Century Fox о том, чтобы снять полнометражную версию его фильма — «Руины» (2012). В итоге ему предложили стать режиссером «Бегущего в лабиринте» (2014), и он согласился.
• Съемки фильма начались в мае 2013 года и продолжались 42 дня.
• В апреле 2014 года стартовала вирусная рекламная кампания с запуском в интернете сайта об организации П. О. Р. О. К. (W.C.K.D.) — wckdisgood.com.
• Изначально планировалось, что режиссером фильма станет Кэтрин Хардвик.
• 25 июля 2014 года на конвенте Comic-Con в Сан-Диего в рамках презентации студии 20th Century Fox состоялось представление фильма, на котором присутствовали автор книги Джеймс Дашнер, режиссер фильма Уэс Болл и исполнители главных ролей Дилан О’Брайен, Кая Скоделарио и Уилл Поултер.
• Прическа Дилана О’Брайена едва не стоила ему роли Томаса. Режиссеру Уэсу Боллу не понравился его «MTV»-стиль. Болл пересмотрел свое мнение, когда ему прислали фото О’Брайена, где его волосы не были уложены гелем.
• Лес и луг Глейда снимались на природе в штате Луизиана. Там водилось столько ядовитых змей, что каждый день перед началом работы по съемочной площадке проходил серпентолог и собирал заползших «в гости» гадов, чтобы обезопасить членов группы. Всего было найдено 25 ядовитых змей. Самая большая из них была полутораметровая гремучая змея.
• Для подготовки к съемкам режиссер Уэс Болл обязал актеров провести ночь в лагере, разбитом на месте проведения съемок.
• Чтобы получить роль Чака актер Блейк Купер добивался прослушивания через Твиттер. Он долгое время засыпал режиссера Уэса Болла твиттами, в которых говорил, что просто создан для этой роли. В итоге Уэс Болл смилостивился над Купером и сказал ему отправить свою запись начальнику актерского отдела, который заявил, что Купер – идеальный Чак.
• Трое детей Вика Годфри, прочитавшие книгу, по которой снят фильм, помогали ему советами во время отбора актеров. Он показывал им записи прослушиваний, а затем выслушивал их отзывы.
• Стены и двери декораций Лабиринта были 6 метров в высоту. Создатели фильма использовали оптические трюки и компьютерную графику, чтобы декорации показались 30-метровыми.

Media Info

General
Unique ID : 177328147601975005098545482486230888979 (0x856828B09D8763E9A1CE0F7963653213)
Complete name : C:\Users\Ivan\Desktop\The.Maze.Runner.2014.D.BDRip-AVC.mkv
Format : Matroska
Format version : Version 4 / Version 2
File size : 2.37 GiB
Duration : 1h 53mn
Overall bit rate : 2 985 Kbps
Movie name : Rip by LPPI
Encoded date : UTC 2014-12-19 19:26:22
Writing application : mkvmerge v7.4.0 ('Circles') 64bit built on Dec 12 2014 12:19:56
Writing library : libebml v1.3.0 + libmatroska v1.4.1
DURATION : 01:53:26.688000000
NUMBER_OF_FRAMES : 212709
NUMBER_OF_BYTES : 163360512
_STATISTICS_WRITING_APP : mkvmerge v7.4.0 ('Circles') 64bit built on Dec 12 2014 12:19:56
_STATISTICS_WRITING_DATE_UT : 2014-12-19 19:26:22
_STATISTICS_TAGS : BPS DURATION NUMBER_OF_FRAMES NUMBER_OF_BYTES
Video
ID : 1
Format : AVC
Format/Info : Advanced Video Codec
Format profile : [email protected]
Format settings, CABAC : Yes
Format settings, ReFrames : 7 frames
Codec ID : V_MPEG4/ISO/AVC
Duration : 1h 53mn
Bit rate : 1 897 Kbps
Width : 1 024 pixels
Height : 424 pixels
Display aspect ratio : 2.40:1
Frame rate mode : Constant
Frame rate : 23.976 fps
Color space : YUV
Chroma subsampling : 4:2:0
Bit depth : 8 bits
Scan type : Progressive
Bits/(Pixel*Frame) : 0.182
Stream size : 1.46 GiB (62%)
Title : Бегущий в лабиринте / The Maze Runner
Writing library : x264 core 130 r2273 b3065e6
Encoding settings : cabac=1 / ref=7 / deblock=1:-3:-3 / analyse=0x3:0x133 / me=umh / subme=10 / psy=1 / psy_rd=1.00:0.15 / mixed_ref=0 / me_range=32 / chroma_me=1 / trellis=2 / 8x8dct=1 / cqm=0 / deadzone=21,11 / fast_pskip=0 / chroma_qp_offset=-3 / threads=12 / lookahead_threads=2 / sliced_threads=0 / nr=0 / decimate=0 / interlaced=0 / bluray_compat=0 / constrained_intra=0 / bframes=7 / b_pyramid=2 / b_adapt=2 / b_bias=0 / direct=3 / weightb=1 / open_gop=0 / weightp=2 / keyint=250 / keyint_min=23 / scenecut=40 / intra_refresh=0 / rc=2pass / mbtree=0 / bitrate=1897 / ratetol=1.0 / qcomp=0.60 / qpmin=0 / qpmax=69 / qpstep=4 / cplxblur=20.0 / qblur=0.5 / ip_ratio=1.40 / pb_ratio=1.30 / aq=1:1.00
Language : English
Default : Yes
Forced : No
DURATION : 01:53:26.811000000
NUMBER_OF_FRAMES : 163200
NUMBER_OF_BYTES : 1611839579
_STATISTICS_WRITING_APP : mkvmerge v7.4.0 ('Circles') 64bit built on Dec 12 2014 12:19:56
_STATISTICS_WRITING_DATE_UT : 2014-12-19 19:26:22
_STATISTICS_TAGS : BPS DURATION NUMBER_OF_FRAMES NUMBER_OF_BYTES
Audio #1
ID : 2
Format : AC-3
Format/Info : Audio Coding 3
Mode extension : CM (complete main)
Format settings, Endianness : Big
Codec ID : A_AC3
Duration : 1h 53mn
Bit rate mode : Constant
Bit rate : 448 Kbps
Channel(s) : 6 channels
Channel positions : Front: L C R, Side: L R, LFE
Sampling rate : 48.0 KHz
Bit depth : 16 bits
Compression mode : Lossy
Stream size : 364 MiB (15%)
Title : Dub (Лицензия)
Language : Russian
Default : Yes
Forced : No
Audio #2
ID : 3
Format : AC-3
Format/Info : Audio Coding 3
Mode extension : CM (complete main)
Format settings, Endianness : Big
Codec ID : A_AC3
Duration : 1h 53mn
Bit rate mode : Constant
Bit rate : 192 Kbps
Channel(s) : 2 channels
Channel positions : Front: L R
Sampling rate : 48.0 KHz
Bit depth : 16 bits
Compression mode : Lossy
Stream size : 156 MiB (6%)
Title : Dub (Лицензия)
Language : Ukrainian
Default : No
Forced : No
Audio #3
ID : 4
Format : AC-3
Format/Info : Audio Coding 3
Mode extension : CM (complete main)
Format settings, Endianness : Big
Codec ID : A_AC3
Duration : 1h 53mn
Bit rate mode : Constant
Bit rate : 448 Kbps
Channel(s) : 6 channels
Channel positions : Front: L C R, Side: L R, LFE
Sampling rate : 48.0 KHz
Bit depth : 16 bits
Compression mode : Lossy
Stream size : 364 MiB (15%)
Title : Original
Language : English
Default : No
Forced : No
Text #1
ID : 5
Format : UTF-8
Codec ID : S_TEXT/UTF8
Codec ID/Info : UTF-8 Plain Text
Language : Russian
Default : No
Forced : No
Text #2
ID : 6
Format : UTF-8
Codec ID : S_TEXT/UTF8
Codec ID/Info : UTF-8 Plain Text
Language : English
Default : No
Forced : No
Menu
00:00:00.000 : en:Chapter 1
00:03:12.860 : en:Chapter 2
00:07:16.186 : en:Chapter 3
00:10:25.459 : en:Chapter 4
00:14:15.772 : en:Chapter 5
00:17:21.458 : en:Chapter 6
00:19:33.548 : en:Chapter 7
00:23:21.234 : en:Chapter 8
00:24:36.601 : en:Chapter 9
00:28:13.317 : en:Chapter 10
00:31:26.218 : en:Chapter 11
00:34:12.259 : en:Chapter 12
00:37:12.022 : en:Chapter 13
00:41:01.084 : en:Chapter 14
00:42:16.826 : en:Chapter 15
00:45:47.662 : en:Chapter 16
00:48:32.035 : en:Chapter 17
00:52:58.009 : en:Chapter 18
00:55:21.986 : en:Chapter 19
00:57:59.018 : en:Chapter 20
00:59:31.360 : en:Chapter 21
01:01:35.484 : en:Chapter 22
01:05:14.119 : en:Chapter 23
01:08:42.619 : en:Chapter 24
01:12:14.456 : en:Chapter 25
01:14:23.042 : en:Chapter 26
01:20:28.032 : en:Chapter 27
01:22:25.858 : en:Chapter 28
01:25:38.384 : en:Chapter 29
01:29:41.794 : en:Chapter 30
01:33:49.666 : en:Chapter 31
01:36:43.465 : en:Chapter 32
01:39:33.635 : en:Chapter 33
01:43:05.805 : en:Chapter 34
01:45:08.428 : en:Chapter 35
01:46:12.867 : en:Chapter 36

Скриншоты

Яндекс.Метрика
Рейтинг@Mail.ru