Страховщик / Autómata (Габе Ибаньес / Gabe Ibáñez) [2014 г., фантастика, триллер, BDRip-AVC] Dub (Лицензия) + Sub (Rus, Eng)

 

Создавать темы 19-Дек-2014 17:52

-Страховщик / Autómata-«Ваше время подошло к концу. Наше только начинается»- Производство: Испания, Болгария / Green Moon, Nu Boyana Viburno
Год выпуска: 2014 г.
Жанр: фантастика, триллер
Продолжительность: 01:45:23
Мировая премьера: 20 сентября 2014
Российская премьера: 16 октября 2014, «Парадиз»
Перевод: Профессиональный (полное дублирование) [Лицензия]-Режиссер: Габе Ибаньес / Gabe Ibáñez
В ролях: Антонио Бандерас, Биргитта Йорт Сёренсен, Мелани Гриффит, Дилан МакДермотт, Роберт Форстер, Тим МакИннерни, Энди Найман, Дэвид Райалл, Эндрю Тирнан, Криста Кэмпбелл-Описание: Главным героем фильма станет страховой агент компании по изготовлению роботов Жак Вокан, который обнаруживает, что изобретаемые роботы создаются не для эксплуатации, а для истребления.- -Качество видео: BDRip-AVC
Контейнер: MKV
Видео кодек: MPEG4 AVC
Аудио кодек: AC3
Видео: 1024x432 (2.40:1), 1 945 Kbps, 25 fps, 0.176 bit/pix
Аудио: 448 Kbps, 6 ch, 48.0 KHz
Cубтитры: Russian, English

Log x264

x264 [info]: frame I:1592  Avg QP:15.05  size: 65899
x264 [info]: frame P:34447 Avg QP:17.28  size: 19555
x264 [info]: frame B:122045 Avg QP:18.58  size:  6219

Media Info

General
Unique ID : 192841219731116944573844541080219560923 (0x9113DE329382522E9768143C118A2BDB)
Complete name : C:\Users\Ivan\Desktop\Autómata.2014.D.BDRip-AVC.mkv
Format : Matroska
Format version : Version 4 / Version 2
File size : 1.76 GiB
Duration : 1h 45mn
Overall bit rate : 2 395 Kbps
Movie name : Rip by LPPI
Encoded date : UTC 2014-12-16 14:45:43
Writing application : mkvmerge v7.4.0 ('Circles') 64bit built on Dec 12 2014 12:19:56
Writing library : libebml v1.3.0 + libmatroska v1.4.1
DURATION : 01:38:19.960000000
NUMBER_OF_FRAMES : 814
NUMBER_OF_BYTES : 30380
_STATISTICS_WRITING_APP : mkvmerge v7.4.0 ('Circles') 64bit built on Dec 12 2014 12:19:56
_STATISTICS_WRITING_DATE_UT : 2014-12-16 14:45:43
_STATISTICS_TAGS : BPS DURATION NUMBER_OF_FRAMES NUMBER_OF_BYTES
Video
ID : 1
Format : AVC
Format/Info : Advanced Video Codec
Format profile : [email protected]
Format settings, CABAC : Yes
Format settings, ReFrames : 7 frames
Codec ID : V_MPEG4/ISO/AVC
Duration : 1h 45mn
Bit rate : 1 945 Kbps
Width : 1 024 pixels
Height : 432 pixels
Display aspect ratio : 2.40:1
Frame rate mode : Constant
Frame rate : 25.000 fps
Color space : YUV
Chroma subsampling : 4:2:0
Bit depth : 8 bits
Scan type : Progressive
Bits/(Pixel*Frame) : 0.176
Stream size : 1.40 GiB (79%)
Title : Страховщик / Autómata
Writing library : x264 core 130 r2273 b3065e6
Encoding settings : cabac=1 / ref=7 / deblock=1:-3:-3 / analyse=0x3:0x133 / me=umh / subme=10 / psy=1 / psy_rd=1.00:0.15 / mixed_ref=0 / me_range=32 / chroma_me=1 / trellis=2 / 8x8dct=1 / cqm=0 / deadzone=21,11 / fast_pskip=0 / chroma_qp_offset=-3 / threads=12 / lookahead_threads=2 / sliced_threads=0 / nr=0 / decimate=0 / interlaced=0 / bluray_compat=0 / constrained_intra=0 / bframes=7 / b_pyramid=2 / b_adapt=2 / b_bias=0 / direct=3 / weightb=1 / open_gop=0 / weightp=2 / keyint=250 / keyint_min=25 / scenecut=40 / intra_refresh=0 / rc=2pass / mbtree=0 / bitrate=1945 / ratetol=1.0 / qcomp=0.60 / qpmin=0 / qpmax=69 / qpstep=4 / cplxblur=20.0 / qblur=0.5 / ip_ratio=1.40 / pb_ratio=1.30 / aq=1:1.00
Language : English
Default : Yes
Forced : No
DURATION : 01:45:23.360000000
NUMBER_OF_FRAMES : 158084
NUMBER_OF_BYTES : 1537579817
_STATISTICS_WRITING_APP : mkvmerge v7.4.0 ('Circles') 64bit built on Dec 12 2014 12:19:56
_STATISTICS_WRITING_DATE_UT : 2014-12-16 14:45:43
_STATISTICS_TAGS : BPS DURATION NUMBER_OF_FRAMES NUMBER_OF_BYTES
Audio
ID : 2
Format : AC-3
Format/Info : Audio Coding 3
Mode extension : CM (complete main)
Format settings, Endianness : Big
Codec ID : A_AC3
Duration : 1h 45mn
Bit rate mode : Constant
Bit rate : 448 Kbps
Channel(s) : 6 channels
Channel positions : Front: L C R, Side: L R, LFE
Sampling rate : 48.0 KHz
Bit depth : 16 bits
Compression mode : Lossy
Stream size : 338 MiB (19%)
Title : Dub (Лицензия)
Language : Russian
Default : Yes
Forced : No
Text #1
ID : 3
Format : UTF-8
Codec ID : S_TEXT/UTF8
Codec ID/Info : UTF-8 Plain Text
Title : Full
Language : Russian
Default : No
Forced : No
Text #2
ID : 4
Format : UTF-8
Codec ID : S_TEXT/UTF8
Codec ID/Info : UTF-8 Plain Text
Title : Full
Language : English
Default : No
Forced : No
Text #3
ID : 5
Format : UTF-8
Codec ID : S_TEXT/UTF8
Codec ID/Info : UTF-8 Plain Text
Title : SDH
Language : English
Default : No
Forced : No
Menu
00:00:00.000 : :Chapter 1
00:10:00.000 : :Chapter 2
00:20:00.000 : :Chapter 3
00:30:00.000 : :Chapter 4
00:40:00.000 : :Chapter 5
00:50:00.000 : :Chapter 6
01:00:00.000 : :Chapter 7
01:10:00.000 : :Chapter 8
01:20:00.000 : :Chapter 9
01:30:00.000 : :Chapter 10
01:40:00.000 : :Chapter 11

Скриншоты

Яндекс.Метрика
Рейтинг@Mail.ru