Горько! 2 (Жора Крыжовников) [2014 г., комедия, BDRip-AVC] O (Лицензия)

 

Создавать темы 19-Дек-2014 17:33

-Горько! 2-«Будем жить»- Производство: Россия / Базелевс Продакшн, Кинокомпания «Lunapark», Таббак
Год выпуска: 23 октября 2014, «Bazelevs Distribution», «Двадцатый Век Фокс СНГ»
Жанр: комедия
Продолжительность: 01:36:32-Режиссер: Жора Крыжовников
В ролях: Сергей Светлаков, Юлия Александрова, Егор Корешков, Ян Цапник, Сергей Лавыгин, Елена Валюшкина, Александр Паль, Валентина Мазунина, Юлия Стадник, Александр Робак-Описание: В надежде сорвать большой куш Наташин отчим идет на финансовую авантюру, чем подставляет своих партнеров по бизнесу. Без лишних слов те устраивают на него покушение. Вся семья скорбит по Борису Ивановичу… а он в гробу все это видел. Ему бы три дня пролежать и похороны пережить, а там родные откопают и можно спать спокойно. И все идет по плану уцелевшего отчима, пока проститься с ним не приезжает боевой товарищ. Рубаха-парень Витька Каравай мгновенно покоряет всю семью, перетягивая общее внимание на себя. Задетый за живое, покойник заставляет родных устроить роскошные поминки с участием Светлакова…- -Качество видео: BDRip-AVC
Контейнер: MKV
Видео кодек: MPEG4 AVC
Аудио кодек: AC3
Видео: 1024x536 (1.910), 24 fps, ~2 848 kbps, 0.216 bit/pixel
Аудио: 48 kHz, AC3 Dolby Digital, 3/2 (L,C,R,l,r) + LFE ch, ~448 kbps
Cубтитры: отсутствуют

Log x264

x264 [info]: frame I:1142  Avg QP:17.05  size: 81670
x264 [info]: frame P:42634 Avg QP:20.08  size: 27618
x264 [info]: frame B:95252 Avg QP:21.41  size:  8288

Media Info

General
Unique ID : 229392438794513783495800472401125221684 (0xAC93606EB156D21BA155C37DA84EA534)
Complete name : C:\Users\Ivan\Desktop\Горько.2.2014.O.BDRip-AVC.mkv
Format : Matroska
Format version : Version 4 / Version 2
File size : 2.22 GiB
Duration : 1h 36mn
Overall bit rate : 3 295 Kbps
Movie name : Rip by LPPI
Encoded date : UTC 2014-12-17 16:50:58
Writing application : mkvmerge v7.4.0 ('Circles') 64bit built on Dec 12 2014 12:19:56
Writing library : libebml v1.3.0 + libmatroska v1.4.1
DURATION : 01:36:32.896000000
NUMBER_OF_FRAMES : 181028
NUMBER_OF_BYTES : 324402176
_STATISTICS_WRITING_APP : mkvmerge v7.4.0 ('Circles') 64bit built on Dec 12 2014 12:19:56
_STATISTICS_WRITING_DATE_UT : 2014-12-17 16:50:58
_STATISTICS_TAGS : BPS DURATION NUMBER_OF_FRAMES NUMBER_OF_BYTES
Video
ID : 1
Format : AVC
Format/Info : Advanced Video Codec
Format profile : [email protected]
Format settings, CABAC : Yes
Format settings, ReFrames : 7 frames
Codec ID : V_MPEG4/ISO/AVC
Duration : 1h 36mn
Bit rate : 2 848 Kbps
Width : 1 024 pixels
Height : 536 pixels
Display aspect ratio : 1.910
Frame rate mode : Constant
Frame rate : 24.000 fps
Color space : YUV
Chroma subsampling : 4:2:0
Bit depth : 8 bits
Scan type : Progressive
Bits/(Pixel*Frame) : 0.216
Stream size : 1.88 GiB (84%)
Title : Горько! 2
Writing library : x264 core 130 r2273 b3065e6
Encoding settings : cabac=1 / ref=7 / deblock=1:-3:-3 / analyse=0x3:0x133 / me=umh / subme=10 / psy=1 / psy_rd=1.00:0.15 / mixed_ref=0 / me_range=32 / chroma_me=1 / trellis=2 / 8x8dct=1 / cqm=0 / deadzone=21,11 / fast_pskip=0 / chroma_qp_offset=-3 / threads=12 / lookahead_threads=2 / sliced_threads=0 / nr=0 / decimate=0 / interlaced=0 / bluray_compat=0 / constrained_intra=0 / bframes=7 / b_pyramid=2 / b_adapt=2 / b_bias=0 / direct=3 / weightb=1 / open_gop=0 / weightp=2 / keyint=250 / keyint_min=23 / scenecut=40 / intra_refresh=0 / rc=2pass / mbtree=0 / bitrate=2848 / ratetol=1.0 / qcomp=0.60 / qpmin=0 / qpmax=69 / qpstep=4 / cplxblur=20.0 / qblur=0.5 / ip_ratio=1.40 / pb_ratio=1.30 / aq=1:1.00
Language : English
Default : Yes
Forced : No
DURATION : 01:36:32.838000000
NUMBER_OF_FRAMES : 139028
NUMBER_OF_BYTES : 2060122222
_STATISTICS_WRITING_APP : mkvmerge v7.4.0 ('Circles') 64bit built on Dec 12 2014 12:19:56
_STATISTICS_WRITING_DATE_UT : 2014-12-17 16:50:58
_STATISTICS_TAGS : BPS DURATION NUMBER_OF_FRAMES NUMBER_OF_BYTES
Audio
ID : 2
Format : AC-3
Format/Info : Audio Coding 3
Mode extension : CM (complete main)
Format settings, Endianness : Big
Codec ID : A_AC3
Duration : 1h 36mn
Bit rate mode : Constant
Bit rate : 448 Kbps
Channel(s) : 6 channels
Channel positions : Front: L C R, Side: L R, LFE
Sampling rate : 48.0 KHz
Bit depth : 16 bits
Compression mode : Lossy
Stream size : 309 MiB (14%)
Title : Оригинал (Лицензия)
Language : Russian
Default : Yes
Forced : No
Menu
00:00:00.000 : ru:00:00:00.000
00:08:07.458 : ru:00:08:07.458
00:14:47.458 : ru:00:14:47.458
00:24:51.125 : ru:00:24:51.125
00:33:26.292 : ru:00:33:26.292
00:38:05.083 : ru:00:38:05.083
00:43:42.000 : ru:00:43:42.000
00:54:05.917 : ru:00:54:05.917
01:04:23.500 : ru:01:04:23.500
01:12:20.417 : ru:01:12:20.417
01:20:05.083 : ru:01:20:05.083
01:28:45.208 : ru:01:28:45.208

Скриншоты

Яндекс.Метрика
Рейтинг@Mail.ru