[ Сегодня на трекере фрилич! Идет свободное скачивание без начисления Download ]

Застывшие во времени / God Don't Make the Laws (Дэвид Саббат) [2011, драма, BDRip 1080p] | НТВ+

 

Создавать темы 18-Ноя-2013 03:59

Информация о фильме
Название: Застывшие во времени
Оригинальное название: God Don't Make the Laws
Год выпуска: 2011
Жанр: драма
Режиссер: Дэвид Саббат
В ролях: Элла Рэй Пек, Роберт Прескотт, Питер Вак, Джейсон Джей Крэбтри, Пол Сорвино, Чейз Коулмэн, Джим Форд, Брюс Дэвисон
О фильме:
В живописной деревушке Роквелл время застыло. Теперь никто не болеет, никто не стареет, никто не погибает в автокатастрофах. Но люди чувствуют себя более несчастными, чем раньше…

Выпущено: США
Продолжительность: 01:36:13
Озвучивание: Профессиональное (многоголосое) [Нтв+]
Файл
Формат: MKV
Качество: BDRip 1080p [SONiDO]
Видео: 9405 kb/s, 1920x1080
Аудио: Russian: AC3, 192 kb/s (2 ch) / English: DTS, 1510 kb/s (6 ch)
Дополнительно: Сохранены оригинальные чаптеры как на Blu-Ray
Размер: 7.77 GB
Скачать: Сэмпл

NFO

General
God.Dont.Make.The.Laws.BDRip.1080p.CINEMANIA.mkv
Format : Matroska
Format version : Version 4 / Version 2
File size : 7.77 GiB
Duration : 1h 40mn
Overall bit rate : 11.1 Mbps
Movie name : Release Group CINEMANIA
Encoded date : UTC 2013-11-17 15:08:34
Writing application : mkvmerge v6.5.0 ('Isn't she lovely') built on Oct 20 2013 12:50:05
Writing library : libebml v1.3.0 + libmatroska v1.4.1
Video
ID : 1
Format : AVC
Format/Info : Advanced Video Codec
Format profile : [email protected]
Format settings, CABAC : Yes
Format settings, ReFrames : 4 frames
Codec ID : V_MPEG4/ISO/AVC
Duration : 1h 40mn
Bit rate : 9 405 Kbps
Width : 1 920 pixels
Height : 1 080 pixels
Display aspect ratio : 16:9
Frame rate mode : Constant
Frame rate : 23.976 fps
Color space : YUV
Chroma subsampling : 4:2:0
Bit depth : 8 bits
Scan type : Progressive
Bits/(Pixel*Frame) : 0.189
Stream size : 6.43 GiB (83%)
Title : Release Group CINEMANIA
Writing library : x264 core 138 r2358 9e941d1
Encoding settings : cabac=1 / ref=4 / deblock=1:0:0 / analyse=0x3:0x133 / me=umh / subme=7 / psy=1 / psy_rd=1.00:0.00 / mixed_ref=1 / me_range=16 / chroma_me=1 / trellis=1 / 8x8dct=1 / cqm=0 / deadzone=21,11 / fast_pskip=0 / chroma_qp_offset=-2 / threads=12 / lookahead_threads=2 / sliced_threads=0 / nr=0 / decimate=1 / interlaced=0 / bluray_compat=0 / constrained_intra=0 / bframes=3 / b_pyramid=2 / b_adapt=2 / b_bias=0 / direct=3 / weightb=1 / open_gop=0 / weightp=2 / keyint=250 / keyint_min=23 / scenecut=40 / intra_refresh=0 / rc_lookahead=50 / rc=2pass / mbtree=1 / bitrate=9405 / ratetol=1.0 / qcomp=0.60 / qpmin=0 / qpmax=69 / qpstep=4 / cplxblur=20.0 / qblur=0.5 / ip_ratio=1.40 / aq=1:1.00
Language : English
Default : Yes
Forced : No
Audio #1
ID : 2
Format : AC-3
Format/Info : Audio Coding 3
Mode extension : CM (complete main)
Format settings, Endianness : Big
Codec ID : A_AC3
Duration : 1h 40mn
Bit rate mode : Constant
Bit rate : 192 Kbps
Channel(s) : 2 channels
Channel positions : Front: L R
Sampling rate : 48.0 KHz
Bit depth : 16 bits
Compression mode : Lossy
Stream size : 138 MiB (2%)
Title : Нтв+
Language : Russian
Default : Yes
Forced : Yes
Audio #2
ID : 3
Format : DTS
Format/Info : Digital Theater Systems
Mode : 16
Format settings, Endianness : Big
Codec ID : A_DTS
Duration : 1h 40mn
Bit rate mode : Constant
Bit rate : 1 509 Kbps
Channel(s) : 6 channels
Channel positions : Front: L C R, Side: L R, LFE
Sampling rate : 48.0 KHz
Bit depth : 24 bits
Compression mode : Lossy
Stream size : 1.06 GiB (14%)
Language : English
Default : No
Forced : No
Menu
00:00:00.000 : en:00:00:00.000
00:07:34.996 : en:00:07:34.996
00:18:43.956 : en:00:18:43.956
00:30:11.977 : en:00:30:11.977
00:38:43.947 : en:00:38:43.947
00:50:40.996 : en:00:50:40.996
00:59:46.958 : en:00:59:46.958
01:08:56.966 : en:01:08:56.966
01:15:53.966 : en:01:15:53.966
01:23:46.939 : en:01:23:46.939
01:30:53.990 : en:01:30:53.990
01:37:02.859 : en:01:37:02.859

Создавать темы 18-Ноя-2013 10:28 (спустя 6 часов)

Топик был перенесен из форума Зарубежные Фильмы (HD*Rip/LQ, DVDRip, SATRip, VHSRip) в форум Зарубежные Фильмы (HD)
[email protected]
Яндекс.Метрика
Рейтинг@Mail.ru