[ Сегодня на трекере фрилич! Идет свободное скачивание без начисления Download ]

Детка / Laggies (Линн Шелтон / Lynn Shelton) [2014 г., мелодрама, комедия, WEB-DLRip] Dub (iTunes)

 

Создавать темы 19-Дек-2014 17:07

-Детка / Laggies- Производство: США
Год выпуска: 2014 г.
Жанр: мелодрама, комедия
Продолжительность: 01:37:02
Мировая премьера: 17 января 2014
Российская премьера: 6 ноября 2014, «Централ Партнершип», «All Media»
Перевод: Профессиональный (полное дублирование) [iTunes]-Режиссер: Линн Шелтон / Lynn Shelton
В ролях: Кира Найтли, Хлоя Грейс Морец, Сэм Рокуэлл, Марк Веббер, Элли Кемпер, Джефф Гарлин, Гретхен Мол, Эрик Ридман, Кейтлин Девер, Дэниэл Дзоватто-Описание: Когда Меган получает предложение от парня, с которым уже давно встречается, оказывается, что на самом деле она абсолютно не готова к взрослой жизни. Поэтому она берет паузу, врёт своему парню, что уезжает на недельку в отпуск, а сама буквально «впадает в детство» и отрывается в компании малознакомых тинейджеров. Возможно, чтобы повзрослеть, ей нужно встретить другого мужчину?- -Качество видео: WEB-DLRip
Контейнер: AVI
Видео кодек: XviD
Аудио кодек: AC3
Видео: 720x384 (1.88:1), 25 fps, XviD build 50 ~1760 kbps avg, 0.25 bit/pixel
Аудио: 48 kHz, AC3 Dolby Digital, 3/2 (L,C,R,l,r) + LFE ch, ~384 kbps
Cубтитры: отсутствуют

Media Info

General
Complete name : D:\D3tk4.2014.D.WEB-DLRip.1400MB.avi
Format : AVI
Format/Info : Audio Video Interleave
File size : 1.46 GiB
Duration : 1h 37mn
Overall bit rate : 2 155 Kbps
Writing application : VirtualDubMod 1.5.10.3 | www.virtualdub-fr.org || (build 2550/release)
Writing library : VirtualDubMod build 2550/release
Video
ID : 0
Format : MPEG-4 Visual
Format profile : Advanced [email protected]
Format settings, BVOP : 2
Format settings, QPel : No
Format settings, GMC : No warppoints
Format settings, Matrix : Default (MPEG)
Codec ID : XVID
Codec ID/Hint : XviD
Duration : 1h 37mn
Bit rate : 1 761 Kbps
Width : 720 pixels
Height : 384 pixels
Display aspect ratio : 1.85:1
Frame rate : 25.000 fps
Color space : YUV
Chroma subsampling : 4:2:0
Bit depth : 8 bits
Scan type : Progressive
Compression mode : Lossy
Bits/(Pixel*Frame) : 0.255
Stream size : 1.19 GiB (82%)
Writing library : XviD 1.2.1 (UTC 2008-12-04)
Audio
ID : 1
Format : AC-3
Format/Info : Audio Coding 3
Mode extension : CM (complete main)
Format settings, Endianness : Big
Codec ID : 2000
Duration : 1h 37mn
Bit rate mode : Constant
Bit rate : 384 Kbps
Channel(s) : 6 channels
Channel positions : Front: L C R, Side: L R, LFE
Sampling rate : 48.0 KHz
Bit depth : 16 bits
Compression mode : Lossy
Stream size : 267 MiB (18%)
Alignment : Split accross interleaves
Interleave, duration : 40 ms (1.00 video frame)
Interleave, preload duratio : 500 ms

Скриншоты

Яндекс.Метрика
Рейтинг@Mail.ru