[ Сегодня на трекере фрилич! Идет свободное скачивание без начисления Download ]

Железная роза / La rose de fer (Жан Роллен) [1973, Ужасы, BDRip 720p]

 

Создавать темы 18-Ноя-2013 03:54

Название: Железная роза
Оригинальное название: La rose de fer
Год выхода: 1973
Жанр: Ужасы
Режиссер: Жан Роллен
В ролях: Франсуаза Паскаль, Юг Кестер, Натали Перри, Мирей Д’Аржент, Мишель Дэлесаль, Жан Роллен
О фильме:
В провинции юноша и девушка знакомятся на свадьбе и договариваются встретиться в следующее воскресенье. В конце прогулки они заходят на огромное кладбище. Найдя заброшенный склеп, они спускаются в него и занимаются любовью. Когда они выходят из него, уже наступает полночь, кладбище выглядит угрожающе, оно населено леденящими душу тенями. И они не могут найти выход…

Страна: Франция, Les Films ABC
Продолжительность: 01:20:34
Перевод: Авторский одноголосый (Владимир Штейн)
Кодек: H.264
Качество: BDRip 720p
Видео: MPEG-4 AVC, 6182 Мбит/с, 1184x720, 23.976 кадр/с
Звук: Русский (AC3, 2 ch, 192 Кбит/с), французский, английский (AC3, 2 ch, 448 Кбит/с)
Субтитры: Английские

Инфо-файл

Полное имя : C:UsersСергейDownloadsLa.rose.de.fer.1973.x264.BDRip.720p.NovaLan.mkv
Формат : Matroska
Версия формата : Version 4 / Version 2
Размер файла : 4,09 Гбайт
Продолжительность : 1 ч. 20 м.
Общий поток : 7272 Кбит/сек
Название фильма : La rose de fer 1973 - NovaLan
Дата кодирования : UTC 2013-11-17 10:35:40
Программа кодирования : mkvmerge v6.5.0 ('Isn't she lovely') built on Oct 20 2013 12:50:05
Библиотека кодирования : libebml v1.3.0 + libmatroska v1.4.1
Видео
Идентификатор : 1
Формат : AVC
Формат/Информация : Advanced Video Codec
Профиль формата : [email protected]
Параметр CABAC формата : Да
Параметр ReFrames формата : 8 кадров
Идентификатор кодека : V_MPEG4/ISO/AVC
Продолжительность : 1 ч. 20 м.
Битрейт : 6182 Кбит/сек
Ширина : 1184 пикселя
Высота : 720 пикселей
Соотношение сторон : 1,644
Частота кадров : 23,976 кадра/сек
Цветовое пространство : YUV
Субдискретизация насыщенности : 4:2:0
Битовая глубина : 8 бит
Тип развёртки : Прогрессивная
Бит/(Пиксели*Кадры) : 0.302
Размер потока : 3,40 Гбайт (83%)
Заголовок : Sergei7721
Библиотека кодирования : x264 core 133 r2334 a3ac64b
Настройки программы : cabac=1 / ref=8 / deblock=1:-1:-1 / analyse=0x3:0x113 / me=umh / subme=10 / psy=1 / psy_rd=1.00:0.20 / mixed_ref=1 / me_range=32 / chroma_me=1 / trellis=2 / 8x8dct=1 / cqm=0 / deadzone=21,11 / fast_pskip=0 / chroma_qp_offset=-3 / threads=12 / lookahead_threads=1 / sliced_threads=0 / nr=0 / decimate=0 / interlaced=0 / bluray_compat=0 / constrained_intra=0 / bframes=6 / b_pyramid=2 / b_adapt=2 / b_bias=0 / direct=3 / weightb=1 / open_gop=0 / weightp=2 / keyint=240 / keyint_min=23 / scenecut=40 / intra_refresh=0 / rc_lookahead=40 / rc=2pass / mbtree=0 / bitrate=6182 / ratetol=1.0 / qcomp=0.60 / qpmin=0 / qpmax=69 / qpstep=4 / cplxblur=20.0 / qblur=0.5 / vbv_maxrate=50000 / vbv_bufsize=62500 / nal_hrd=none / ip_ratio=1.40 / pb_ratio=1.30 / aq=1:1.00
Язык : French
Default : Да
Forced : Нет
Аудио #1
Идентификатор : 2
Формат : AC-3
Формат/Информация : Audio Coding 3
Расширение режима : CM (complete main)
Параметр Endianness формата : Big
Идентификатор кодека : A_AC3
Продолжительность : 1 ч. 20 м.
Вид битрейта : Постоянный
Битрейт : 192 Кбит/сек
Каналы : 2 канала
Расположение каналов : Front: L R
Частота : 48,0 КГц
Битовая глубина : 16 бит
Метод сжатия : С потерями
Размер потока : 111 Мбайт (3%)
Язык : Russian
Default : Да
Forced : Нет
Аудио #2
Идентификатор : 3
Формат : AC-3
Формат/Информация : Audio Coding 3
Расширение режима : CM (complete main)
Параметр Endianness формата : Big
Идентификатор кодека : A_AC3
Продолжительность : 1 ч. 20 м.
Вид битрейта : Постоянный
Битрейт : 448 Кбит/сек
Каналы : 2 канала
Расположение каналов : Front: L R
Частота : 48,0 КГц
Битовая глубина : 16 бит
Метод сжатия : С потерями
Размер потока : 258 Мбайт (6%)
Язык : French
Default : Нет
Forced : Нет
Аудио #3
Идентификатор : 4
Формат : AC-3
Формат/Информация : Audio Coding 3
Расширение режима : CM (complete main)
Параметр Endianness формата : Big
Идентификатор кодека : A_AC3
Продолжительность : 1 ч. 20 м.
Вид битрейта : Постоянный
Битрейт : 448 Кбит/сек
Каналы : 2 канала
Расположение каналов : Front: L R
Частота : 48,0 КГц
Битовая глубина : 16 бит
Метод сжатия : С потерями
Размер потока : 258 Мбайт (6%)
Язык : English
Default : Нет
Forced : Нет
Текст
Идентификатор : 5
Формат : UTF-8
Идентификатор кодека : S_TEXT/UTF8
Идентификатор кодека/Информация : UTF-8 Plain Text
Язык : English
Default : Нет
Forced : Нет
Меню
00:00:00.000 : en:00:00:00.000
00:08:30.134 : en:00:08:30.134
00:13:46.784 : en:00:13:46.784
00:25:49.631 : en:00:25:49.631
00:31:56.873 : en:00:31:56.873
00:39:31.077 : en:00:39:31.077
00:50:09.339 : en:00:50:09.339
00:56:54.035 : en:00:56:54.035
01:02:43.801 : en:01:02:43.801
01:13:42.459 : en:01:13:42.459

Скриншоты:

Создавать темы 18-Ноя-2013 10:26 (спустя 6 часов)

Топик был перенесен из форума Зарубежная Классика (HD*Rip/LQ, DVDRip, SATRip, VHSRip) в форум Зарубежная Классика (HD)
[email protected]
Яндекс.Метрика
Рейтинг@Mail.ru