(Rock) Карнавал - Grand Collection - 2008 [FLAC, tracks+.cue, lossless]

 

Создавать темы 19-Дек-2014 16:30

-Карнавал / Grand Collection-- Год издания: 2008
Страна: Russia
Жанр: Rock
Продолжительность: 01:13:04-Лейбл издания: Квадро диск
Тип альбома: Compilation
Страна-выпуска диска: Russia
Номер по каталогу: GCR 268
Формат: FLAC
Битрейт аудио: lossless
Тип рипа: tracks+.cue
Наличие сканов в содержимом раздачи: да

треклист

01.Внезапный тупик (05:00)
02.Актер (03:26)
03.Остров (04:35)
04.Автомат (03:41)
05.Мы слушали битлз (03:59)
06.Рок-н-рольный марафон (05:00)
07.Подожди, постой (04:01)
08.Спасательный круг (05:17)
09.Крот (02:32)
10.Песня о друге (05:53)
11.Ты увидишь карнавал (03:38)
12.Фестиваль (05:21)
13.Поверь в себя (05:16)
14.Больше не встречу (03:41)
15.Что же ты не рад (03:39)
16.Я увидел зал (03:18)
17.Взгляды (04:41)

Лог создания рипа

Exact Audio Copy V0.99 prebeta 5 from 4. May 2009
EAC extraction logfile from 24. August 2009, 11:53
Карнавал / Grand Collection
Used drive  : Optiarc DVD RW AD-7203S   Adapter: 1  ID: 0
Read mode               : Secure
Utilize accurate stream : Yes
Defeat audio cache      : Yes
Make use of C2 pointers : No
Read offset correction                      : 48
Overread into Lead-In and Lead-Out          : No
Fill up missing offset samples with silence : Yes
Delete leading and trailing silent blocks   : No
Null samples used in CRC calculations       : Yes
Used interface                              : Installed external ASPI interface
Gap handling                                : Appended to previous track
Used output format              : User Defined Encoder
Selected bitrate                : 1024 kBit/s
Quality                         : High
Add ID3 tag                     : No
Command line compressor         : C:\Program Files\foobar2000\encoders\flac.exe
Additional command line options : -V -8 -T "artist=%a" -T "title=%t" -T "album=%g" -T "date=%y" -T "tracknumber=%n" -T "genre=%m" %s
TOC of the extracted CD
Track |   Start  |  Length  | Start sector | End sector
---------------------------------------------------------
1  |  0:00.00 |  5:00.37 |         0    |    22536
2  |  5:00.37 |  3:26.27 |     22537    |    38013
3  |  8:26.64 |  4:35.00 |     38014    |    58638
4  | 13:01.64 |  3:41.40 |     58639    |    75253
5  | 16:43.29 |  3:59.53 |     75254    |    93231
6  | 20:43.07 |  5:00.00 |     93232    |   115731
7  | 25:43.07 |  4:01.00 |    115732    |   133806
8  | 29:44.07 |  5:17.40 |    133807    |   157621
9  | 35:01.47 |  2:32.17 |    157622    |   169038
10  | 37:33.64 |  5:53.00 |    169039    |   195513
11  | 43:26.64 |  3:38.18 |    195514    |   211881
12  | 47:05.07 |  5:21.00 |    211882    |   235956
13  | 52:26.07 |  5:16.50 |    235957    |   259706
14  | 57:42.57 |  3:41.63 |    259707    |   276344
15  | 61:24.45 |  3:39.33 |    276345    |   292802
16  | 65:04.03 |  3:18.32 |    292803    |   307684
17  | 68:22.35 |  4:41.65 |    307685    |   328824
Track  1
Filename C:\Users\Ondrev\Music\EAC\Карнавал - 2008 - Grand Collection\01 - Внезапный тупик.wav
Pre-gap length  0:00:02.00
Peak level 99.9 %
Track quality 99.9 %
Test CRC D521907A
Copy CRC D521907A
Track not present in AccurateRip database
Copy OK
Track  2
Filename C:\Users\Ondrev\Music\EAC\Карнавал - 2008 - Grand Collection\02 - Актер.wav
Peak level 99.9 %
Track quality 100.0 %
Test CRC 0EC271CA
Copy CRC 0EC271CA
Track not present in AccurateRip database
Copy OK
Track  3
Filename C:\Users\Ondrev\Music\EAC\Карнавал - 2008 - Grand Collection\03 - Остров.wav
Peak level 99.9 %
Track quality 100.0 %
Test CRC 248A8980
Copy CRC 248A8980
Track not present in AccurateRip database
Copy OK
Track  4
Filename C:\Users\Ondrev\Music\EAC\Карнавал - 2008 - Grand Collection\04 - Автомат.wav
Peak level 99.9 %
Track quality 100.0 %
Test CRC C3595DE3
Copy CRC C3595DE3
Track not present in AccurateRip database
Copy OK
Track  5
Filename C:\Users\Ondrev\Music\EAC\Карнавал - 2008 - Grand Collection\05 - Мы слушали битлз.wav
Peak level 99.9 %
Track quality 100.0 %
Test CRC 12D36B28
Copy CRC 12D36B28
Track not present in AccurateRip database
Copy OK
Track  6
Filename C:\Users\Ondrev\Music\EAC\Карнавал - 2008 - Grand Collection\06 - Рок-н-рольный марафон.wav
Peak level 99.9 %
Track quality 100.0 %
Test CRC 1DC22FEF
Copy CRC 1DC22FEF
Track not present in AccurateRip database
Copy OK
Track  7
Filename C:\Users\Ondrev\Music\EAC\Карнавал - 2008 - Grand Collection\07 - Подожди, постой.wav
Peak level 99.9 %
Track quality 100.0 %
Test CRC 4DE59551
Copy CRC 4DE59551
Track not present in AccurateRip database
Copy OK
Track  8
Filename C:\Users\Ondrev\Music\EAC\Карнавал - 2008 - Grand Collection\08 - Спасательный круг.wav
Peak level 99.9 %
Track quality 100.0 %
Test CRC C0D87039
Copy CRC C0D87039
Track not present in AccurateRip database
Copy OK
Track  9
Filename C:\Users\Ondrev\Music\EAC\Карнавал - 2008 - Grand Collection\09 - Крот.wav
Peak level 99.9 %
Track quality 100.0 %
Test CRC DD0ADA39
Copy CRC DD0ADA39
Track not present in AccurateRip database
Copy OK
Track 10
Filename C:\Users\Ondrev\Music\EAC\Карнавал - 2008 - Grand Collection\10 - Песня о друге.wav
Peak level 99.9 %
Track quality 99.9 %
Test CRC 94C38424
Copy CRC 94C38424
Track not present in AccurateRip database
Copy OK
Track 11
Filename C:\Users\Ondrev\Music\EAC\Карнавал - 2008 - Grand Collection\11 - Ты увидишь карнавал.wav
Peak level 99.9 %
Track quality 100.0 %
Test CRC 9A9B962B
Copy CRC 9A9B962B
Track not present in AccurateRip database
Copy OK
Track 12
Filename C:\Users\Ondrev\Music\EAC\Карнавал - 2008 - Grand Collection\12 - Фестиваль.wav
Peak level 99.9 %
Track quality 100.0 %
Test CRC 028C4162
Copy CRC 028C4162
Track not present in AccurateRip database
Copy OK
Track 13
Filename C:\Users\Ondrev\Music\EAC\Карнавал - 2008 - Grand Collection\13 - Поверь в себя.wav
Peak level 99.9 %
Track quality 100.0 %
Test CRC 45E5CA99
Copy CRC 45E5CA99
Track not present in AccurateRip database
Copy OK
Track 14
Filename C:\Users\Ondrev\Music\EAC\Карнавал - 2008 - Grand Collection\14 - Больше не встречу.wav
Peak level 99.9 %
Track quality 99.9 %
Test CRC 50EAEF55
Copy CRC 50EAEF55
Track not present in AccurateRip database
Copy OK
Track 15
Filename C:\Users\Ondrev\Music\EAC\Карнавал - 2008 - Grand Collection\15 - Что же ты не рад.wav
Peak level 99.9 %
Track quality 100.0 %
Test CRC F4A34B4E
Copy CRC F4A34B4E
Track not present in AccurateRip database
Copy OK
Track 16
Filename C:\Users\Ondrev\Music\EAC\Карнавал - 2008 - Grand Collection\16 - Я увидел зал.wav
Peak level 99.9 %
Track quality 100.0 %
Test CRC ECAC484A
Copy CRC ECAC484A
Track not present in AccurateRip database
Copy OK
Track 17
Filename C:\Users\Ondrev\Music\EAC\Карнавал - 2008 - Grand Collection\17 - Взгляды.wav
Peak level 99.9 %
Track quality 100.0 %
Test CRC CE765665
Copy CRC CE765665
Track not present in AccurateRip database
Copy OK
None of the tracks are present in the AccurateRip database
No errors occurred
End of status report

Индексная карта (non-compilant .cue)

REM GENRE New Wave
REM DATE 2008
REM DISCID E7112011
PERFORMER "Карнавал"
TITLE "Grand Collection"
FILE "01 - Внезапный тупик.flac" WAVE
TRACK 01 AUDIO
TITLE "Внезапный тупик"
PERFORMER "Карнавал"
INDEX 01 00:00:00
FILE "02 - Актер.flac" WAVE
TRACK 02 AUDIO
TITLE "Актер"
PERFORMER "Карнавал"
INDEX 01 00:00:00
FILE "03 - Остров.flac" WAVE
TRACK 03 AUDIO
TITLE "Остров"
PERFORMER "Карнавал"
INDEX 01 00:00:00
FILE "04 - Автомат.flac" WAVE
TRACK 04 AUDIO
TITLE "Автомат"
PERFORMER "Карнавал"
INDEX 01 00:00:00
FILE "05 - Мы слушали битлз.flac" WAVE
TRACK 05 AUDIO
TITLE "Мы слушали битлз"
PERFORMER "Карнавал"
INDEX 01 00:00:00
FILE "06 - Рок-н-рольный марафон.flac" WAVE
TRACK 06 AUDIO
TITLE "Рок-н-рольный марафон"
PERFORMER "Карнавал"
INDEX 01 00:00:00
FILE "07 - Подожди, постой.flac" WAVE
TRACK 07 AUDIO
TITLE "Подожди, постой"
PERFORMER "Карнавал"
INDEX 01 00:00:00
FILE "08 - Спасательный круг.flac" WAVE
TRACK 08 AUDIO
TITLE "Спасательный круг"
PERFORMER "Карнавал"
INDEX 01 00:00:00
FILE "09 - Крот.flac" WAVE
TRACK 09 AUDIO
TITLE "Крот"
PERFORMER "Карнавал"
INDEX 01 00:00:00
FILE "10 - Песня о друге.flac" WAVE
TRACK 10 AUDIO
TITLE "Песня о друге"
PERFORMER "Карнавал"
INDEX 01 00:00:00
FILE "11 - Ты увидишь карнавал.flac" WAVE
TRACK 11 AUDIO
TITLE "Ты увидишь карнавал"
PERFORMER "Карнавал"
INDEX 01 00:00:00
FILE "12 - Фестиваль.flac" WAVE
TRACK 12 AUDIO
TITLE "Фестиваль"
PERFORMER "Карнавал"
INDEX 01 00:00:00
FILE "13 - Поверь в себя.flac" WAVE
TRACK 13 AUDIO
TITLE "Поверь в себя"
PERFORMER "Карнавал"
INDEX 01 00:00:00
FILE "14 - Больше не встречу.flac" WAVE
TRACK 14 AUDIO
TITLE "Больше не встречу"
PERFORMER "Карнавал"
INDEX 01 00:00:00
FILE "15 - Что же ты не рад.flac" WAVE
TRACK 15 AUDIO
TITLE "Что же ты не рад"
PERFORMER "Карнавал"
INDEX 01 00:00:00
FILE "16 - Я увидел зал.flac" WAVE
TRACK 16 AUDIO
TITLE "Я увидел зал"
PERFORMER "Карнавал"
INDEX 01 00:00:00
FILE "17 - Взгляды.flac" WAVE
TRACK 17 AUDIO
TITLE "Взгляды"
PERFORMER "Карнавал"
INDEX 01 00:00:00

fooCDtect

fooCDtect - foobar2000 + auCDtect, baralgin.
auCDtect: CD records authenticity detector, version 0.8.2
Copyright (c) 2004 Oleg Berngardt. All rights reserved.
Copyright (c) 2004 Alexander Djourik. All rights reserved.
mode: 0
===========================================
Track: 01. Внезапный тупик
Quality: CDDA 100%
===========================================
Track: 03. Остров
Quality: CDDA 100%
===========================================
Track: 05. Мы слушали битлз
Quality: CDDA 100%
===========================================
Track: 02. Актер
Quality: CDDA 100%
===========================================
Track: 04. Автомат
Quality: CDDA 100%
===========================================
Track: 07. Подожди, постой
Quality: CDDA 100%
===========================================
Track: 08. Спасательный круг
Quality: CDDA 100%
===========================================
Track: 06. Рок-н-рольный марафон
Quality: CDDA 100%
===========================================
Track: 11. Ты увидишь карнавал
Quality: CDDA 100%
===========================================
Track: 10. Песня о друге
Quality: CDDA  42%
===========================================
Track: 13. Поверь в себя
Quality: CDDA 100%
===========================================
Track: 09. Крот
Quality: CDDA 100%
===========================================
Track: 12. Фестиваль
Quality: CDDA 100%
===========================================
Track: 14. Больше не встречу
Quality: CDDA  99%
===========================================
Track: 15. Что же ты не рад
Quality: CDDA  86%
===========================================
Track: 17. Взгляды
Quality: CDDA 100%
===========================================
Track: 16. Я увидел зал
Quality: CDDA 100%
===========================================

Скриншот спектра частот

--
Яндекс.Метрика
Рейтинг@Mail.ru