[ Сегодня на трекере фрилич! Идет свободное скачивание без начисления Download ]

Открытые окна / Open Windows (Начо Вигалондо / Nacho Vigalondo) [2014 г., триллер, HDRip] Dub [Лицензия]

 

Создавать темы 19-Дек-2014 16:22

-Открытые окна / Open Windows-- Производство: Испания, США
Год выпуска: 2014 г.
Жанр: триллер
Продолжительность: 01:40:40
Перевод: Профессиональный (полное дублирование) [Лицензия]-Режиссер: Начо Вигалондо / Nacho Vigalondo-В ролях: Элайджа Вуд, Саша Грэй, Нил Мэскелл, Начо Вигалондо, Иван Гонсалес, Рэйчел Ариефф, Треванте Родс, Хайме Олиас, Майк МакКатчен, Улисс Лопес-Описание: Ник — фанат актрисы Джилл Годдард и редактор ее неофициального сайта. Он выигрывает конкурс, главный приз в котором — ужин со звездой после презентации ее нового фильма. Во время онлайн репортажа с презентации, которая транслируется через сайт Ника, раздается звонок и человек, представившийся Кордом, объявляет ему, что ужин отменен. Ник даже не подозревает, что стал пешкой в игре, цель которой — убийство Джилл…- -Качество видео: HDRip
Контейнер: AVI
Видео кодек: XviD
Аудио кодек: AC3
Видео: 720x400, 23.976 fps, 1623 kbps avg, 0.235 bit/pixel
Аудио: 48 kHz, AC3 Dolby Digital, 3/2 (L,C,R,l,r) + LFE ch, ~448 kbps
Cубтитры: отсутствуют-

Media Info

Общее
Полное имя : C:\Users\Ромик\Pictures\Открытые окна\Otkytye.Okna.2014.D.HDRip.avi
Формат : AVI
Формат/Информация : Audio Video Interleave
Размер файла : 1,46 Гбайт
Продолжительность : 1 ч. 40 м.
Общий поток : 2080 Кбит/сек
Программа кодирования : VirtualDubMod 1.5.10.2 (build 2540/release)
Библиотека кодирования : VirtualDubMod build 2540/release
Видео
Идентификатор : 0
Формат : MPEG-4 Visual
Профиль формата : Advanced [email protected]
Параметр BVOP формата : 2
Параметр QPel формата : Нет
Параметр GMC формата : Без точки перехода
Параметр матрицы формата : Default (MPEG)
Идентификатор кодека : XVID
Идентификатор кодека/Подсказка : XviD
Продолжительность : 1 ч. 40 м.
Битрейт : 1623 Кбит/сек
Ширина : 720 пикселей
Высота : 400 пикселей
Соотношение сторон : 16:9
Частота кадров : 23,976 кадра/сек
Цветовое пространство : YUV
Субдискретизация насыщенности : 4:2:0
Битовая глубина : 8 бит
Тип развёртки : Прогрессивная
Метод сжатия : С потерями
Бит/(Пиксели*Кадры) : 0.235
Размер потока : 1,14 Гбайт (78%)
Библиотека кодирования : XviD 1.2.1 (UTC 2008-12-04)
Аудио
Идентификатор : 1
Формат : AC-3
Формат/Информация : Audio Coding 3
Расширение режима : CM (complete main)
Параметр Endianness формата : Big
Идентификатор кодека : 2000
Продолжительность : 1 ч. 40 м.
Вид битрейта : Постоянный
Битрейт : 448 Кбит/сек
Каналы : 6 каналов
Расположение каналов : Front: L C R, Side: L R, LFE
Частота : 48,0 КГц
Битовая глубина : 16 бит
Метод сжатия : С потерями
Размер потока : 322 Мбайт (22%)
Выравнивание : Разделение по промежуткам
Продолжительность промежутка : 42 мс. (1,00 видеокадр)
Время предзагрузки промежутка : 500 мс.
-

Скриншоты

-
Яндекс.Метрика
Рейтинг@Mail.ru