[ Сегодня на трекере фрилич! Идет свободное скачивание без начисления Download ]

Исчезнувшая / Gone Girl (Дэвид Финчер / David Fincher) [2014 г., триллер, драма, детектив, WEB-DL, 720p] Dub [iTunes] + Original (Eng) + Sub (Eng)

 

Создавать темы 19-Дек-2014 16:16

-Исчезнувшая / Gone Girl--
Производство: США
Год выпуска: 2014 г.
Жанр: триллер, драма, детектив
Продолжительность: 02:29:15
Мировая премьера: 26 сентября 2014
Российская премьера: 2 октября 2014, «Двадцатый Век Фокс СНГ»
Дата выхода Blu-Ray: 31 декабря 2014, «Двадцатый Век Фокс СНГ»
Перевод: Профессиональный (полное дублирование) [iTunes]
Оригинальный аудиопоток: английский
Режиссер: Дэвид Финчер / David Fincher-В ролях: Бен Аффлек, Розамунд Пайк, Нил Патрик Харрис, Мисси Пайл, Скут МакНэйри, Кэрри Кун, Тайлер Перри, Ли Норрис, Бойд Холбрук, Патрик Фьюджит-Описание: Все было готово для празднования пятилетнего юбилея супружеской жизни, когда вдруг необъяснимо пропал один из виновников торжества. Остались следы борьбы в доме, кровь, которую явно пытались стереть, — и цепочка «ключей» в игре под названием «охота за сокровищами»; красивая, умная и невероятно изобретательная жена ежегодно устраивала ее для своего обожаемого мужа. И похоже, что эти «ключи» — размещенные ею тут и там странные записки и не менее странные безделушки — дают единственный шанс пролить свет на судьбу исчезнувшей. Вот только не придется ли «охотнику» в процессе поиска раскрыть миру и пару-тройку собственных малосимпатичных тайн?
-
Качество видео: WEB-DL
Контейнер: MKV
Стандарт разрешения: 720p
Видео кодек: MPEG4/AVC
Аудио кодек: AC3
Видео: 1280x532; 4021 kbps; 23,976 fps
Аудио #1: 384 Kbps; 6 ch; 48.0 kHz
Аудио #2: 384 Kbps; 6 ch; 48.0 kHz
Cубтитры: английские

Media Info

General
Unique ID : 180566482185467220960710759252873864877 (0x87D7D6E96E302298BA9B2B6E37DE66AD)
Complete name : D:\Torrents\Gone.Girl.2014.D.WEB-DL.720p.mkv
Format : Matroska
Format version : Version 4 / Version 2
File size : 5.09 GiB
Duration : 2h 29mn
Overall bit rate : 4 886 Kbps
Encoded date : UTC 2014-12-19 13:28:47
Writing application : mkvmerge v7.4.0 ('Circles') 64bit built on Dec 12 2014 12:19:56
Writing library : libebml v1.3.0 + libmatroska v1.4.1
DURATION : 02:28:53.152000000
NUMBER_OF_FRAMES : 279161
NUMBER_OF_BYTES : 428791296
_STATISTICS_WRITING_APP : mkvmerge v7.4.0 ('Circles') 64bit built on Dec 12 2014 12:19:56
_STATISTICS_WRITING_DATE_UTC : 2014-12-19 13:28:47
_STATISTICS_TAGS : BPS DURATION NUMBER_OF_FRAMES NUMBER_OF_BYTES
Video
ID : 1
Format : AVC
Format/Info : Advanced Video Codec
Format profile : [email protected]
Format settings, CABAC : No
Format settings, ReFrames : 2 frames
Codec ID : V_MPEG4/ISO/AVC
Duration : 2h 29mn
Bit rate : 4 021 Kbps
Width : 1 280 pixels
Height : 532 pixels
Display aspect ratio : 2.40:1
Frame rate mode : Constant
Frame rate : 23.976 fps
Color space : YUV
Chroma subsampling : 4:2:0
Bit depth : 8 bits
Scan type : Progressive
Bits/(Pixel*Frame) : 0.246
Stream size : 4.19 GiB (82%)
Default : Yes
Forced : No
Color primaries : BT.709
Transfer characteristics : BT.709
Matrix coefficients : BT.709
Color range : Limited
Audio #1
ID : 2
Format : AC-3
Format/Info : Audio Coding 3
Mode extension : CM (complete main)
Format settings, Endianness : Big
Codec ID : A_AC3
Duration : 2h 29mn
Bit rate mode : Constant
Bit rate : 384 Kbps
Channel(s) : 6 channels
Channel positions : Front: L C R, Side: L R, LFE
Sampling rate : 48.0 KHz
Bit depth : 16 bits
Compression mode : Lossy
Stream size : 410 MiB (8%)
Title : iTunes
Language : Russian
Default : Yes
Forced : No
Audio #2
ID : 3
Format : AC-3
Format/Info : Audio Coding 3
Mode extension : CM (complete main)
Format settings, Endianness : Big
Codec ID : A_AC3
Duration : 2h 29mn
Bit rate mode : Constant
Bit rate : 384 Kbps
Channel(s) : 6 channels
Channel positions : Front: L C R, Side: L R, LFE
Sampling rate : 48.0 KHz
Bit depth : 16 bits
Compression mode : Lossy
Stream size : 410 MiB (8%)
Language : English
Default : No
Forced : No
Text
ID : 4
Format : UTF-8
Codec ID : S_TEXT/UTF8
Codec ID/Info : UTF-8 Plain Text
Language : English
Default : No
Forced : No
Menu
00:00:00.000 : en:1
00:03:26.000 : en:2
00:06:56.000 : en:3
00:08:17.000 : en:4
00:11:56.000 : en:5
00:14:59.000 : en:6
00:18:11.000 : en:7
00:19:54.000 : en:8
00:21:40.000 : en:9
00:23:51.000 : en:10
00:28:32.000 : en:11
00:31:29.000 : en:12
00:34:35.000 : en:13
00:40:47.000 : en:14
00:44:33.000 : en:15
00:46:53.000 : en:16
00:49:15.000 : en:17
00:54:08.000 : en:18
01:00:01.000 : en:19
01:03:11.000 : en:20
01:06:03.000 : en:21
01:12:51.000 : en:22
01:15:07.000 : en:23
01:19:48.000 : en:24
01:21:50.000 : en:25
01:27:17.000 : en:26
01:28:06.000 : en:27
01:33:21.000 : en:28
01:39:27.000 : en:29
01:46:19.000 : en:30
01:50:38.000 : en:31
01:56:32.000 : en:32
01:58:57.000 : en:33
02:02:14.000 : en:34
02:05:26.000 : en:35
02:12:21.000 : en:36
02:16:03.000 : en:37
02:19:47.000 : en:38
02:22:32.000 : en:39
02:24:05.000 : en:40
Яндекс.Метрика
Рейтинг@Mail.ru