[ Сегодня на трекере фрилич! Идет свободное скачивание без начисления Download ]

DJ Alex Prime & CJ Modis - INDIGO (2013) [MP3|320 кб/с]<Instrumental, Progressive House, Trap>

 

Создавать темы 19-Дек-2014 11:24

-DJ Alex Prime & CJ Modis - INDIGO (2013)- Год: 2013
Жанр: Instrumental, Progressive House, Trap
Продолжительность: 00:46:08
Кодек: MP3
Битрейт: 320 кб/с
Тип битрейта: CBR
Треклист:
01. DJ Alex Prime & CJ Modis - Intro
02. DJ Alex Prime & CJ Modis - INDIGO (Original Mix)
03. DJ Alex Prime - Love Effect (Radio Mix)
04. DJ Alex Prime & CJ Modis - Atomic Forsage (Original Mix)
05. DJ Alex Prime - Magnum (Radio Mix)
06. CJ Modis - Love Me Or Hate Me (Original Mix)
07. DJ Alex Prime - Cici (Original Mix)
08. CJ Modis - Stars Crashing Down (Original Mix)
09. DJ Alex Prime - Trubetchino Anthem (Radio Mix)
10. CJ Modis - Double Trouble (Original Mix)
11. CJ Modis - Midnight Silence (Original Mix)
12. Данила Раств - Как я мог любить такую (DJ Alex Prime & CJ Modis Remix)
13. Карина - Лето (DJ Alex Prime & CJ Modis Remix)

Дополнительная информация&#58;

Добро пожаловать в мир музыки, которая создает настроение.
DJ Alex Prime & CJ Modis - авторы альбома. Коллекция из 13 треков.
Альбом из разноплановых, но дополняющий друг друга композиций: прогрессив, хаус, трэп и инструментал в лучших джазовых ритмах 1960 — 70-х годов.
"INDIGO" - очень яркий и экспрессивный диск.

Отчет MediaInfo

Общее
Полное имя : D:\Filez\DJ Alex Prime & CJ Modis - INDIGO (2013)\01_DJ Alex Prime & CJ Modis - Intro.mp3
Формат : MPEG Audio
Размер файла : 1,88 Мбайт
Продолжительность : 37 с.
Режим общего битрейта : Постоянный
Общий поток : 320 Кбит/сек
Альбом : INDIGO
Альбом/Исполнитель : DJ Alex Prime & CJ Modis
Трек : Intro
Трек/Положение : 01
Исполнитель : DJ Alex Prime & CJ Modis
Композитор : DJ Alex Prime & CJ Modis
Издатель : UDUN Records
Жанр : Instrumental
Дата записи : 2013
Обложка : Yes
Тип обложки : Cover (front)
MIME-тип обложки : image/jpeg
Примечание : vk.com/alex_prime : vk.com/id204094519
Аудио
Формат : MPEG Audio
Версия формата : Version 1
Профиль формата : Layer 3
Режим : Joint stereo
Продолжительность : 37 с.
Вид битрейта : Постоянный
Битрейт : 320 Кбит/сек
Каналы : 2 канала
Частота : 44,1 КГц
Метод сжатия : С потерями
Размер потока : 1,42 Мбайт (76%)
Общее
Полное имя : D:\Filez\DJ Alex Prime & CJ Modis - INDIGO (2013)\02_DJ Alex Prime & CJ Modis - INDIGO (Original Mix).mp3
Формат : MPEG Audio
Размер файла : 9,35 Мбайт
Продолжительность : 3 м. 53 с.
Режим общего битрейта : Постоянный
Общий поток : 320 Кбит/сек
Альбом : INDIGO
Альбом/Исполнитель : DJ Alex Prime & CJ Modis
Трек : INDIGO (Original Mix)
Трек/Положение : 02
Исполнитель : DJ Alex Prime & CJ Modis
Композитор : DJ Alex Prime & CJ Modis
Издатель : UDUN Records
Жанр : Instrumental
Дата записи : 2013
Обложка : Yes
Тип обложки : Cover (front)
MIME-тип обложки : image/jpeg
Примечание : vk.com/alex_prime : vk.com/id204094519
Аудио
Формат : MPEG Audio
Версия формата : Version 1
Профиль формата : Layer 3
Режим : Joint stereo
Продолжительность : 3 м. 53 с.
Вид битрейта : Постоянный
Битрейт : 320 Кбит/сек
Каналы : 2 канала
Частота : 44,1 КГц
Метод сжатия : С потерями
Размер потока : 8,90 Мбайт (95%)
Общее
Полное имя : D:\Filez\DJ Alex Prime & CJ Modis - INDIGO (2013)\03_DJ Alex Prime - Love Effect (Radio Mix).mp3
Формат : MPEG Audio
Размер файла : 6,83 Мбайт
Продолжительность : 2 м. 46 с.
Режим общего битрейта : Постоянный
Общий поток : 320 Кбит/сек
Альбом : INDIGO
Альбом/Исполнитель : DJ Alex Prime & CJ Modis
Трек : Love Effect (Radio Mix)
Трек/Положение : 03
Исполнитель : DJ Alex Prime
Композитор : DJ Alex Prime & CJ Modis
Издатель : UDUN Records
Жанр : Instrumental
Дата записи : 2013
Библиотека кодирования : LAME3.98.4
BPM : 118
Обложка : Yes
Тип обложки : Cover (front)
MIME-тип обложки : image/jpeg
Примечание : vk.com/alex_prime : vk.com/id204094519
Аудио
Формат : MPEG Audio
Версия формата : Version 1
Профиль формата : Layer 3
Режим : Joint stereo
Продолжительность : 2 м. 47 с.
Вид битрейта : Постоянный
Битрейт : 320 Кбит/сек
Каналы : 2 канала
Частота : 44,1 КГц
Метод сжатия : С потерями
Размер потока : 6,37 Мбайт (93%)
Библиотека кодирования : LAME3.98.4
Общее
Полное имя : D:\Filez\DJ Alex Prime & CJ Modis - INDIGO (2013)\04_DJ Alex Prime & CJ Modis - Atomic Forsage (Original Mix).mp3
Формат : MPEG Audio
Размер файла : 14,3 Мбайт
Продолжительность : 6 м. 3 с.
Режим общего битрейта : Постоянный
Общий поток : 320 Кбит/сек
Альбом : INDIGO
Альбом/Исполнитель : DJ Alex Prime & CJ Modis
Трек : Atomic Forsage (Original Mix)
Трек/Положение : 04
Исполнитель : DJ Alex Prime & CJ Modis
Композитор : DJ Alex Prime & CJ Modis
Издатель : UDUN Records
Жанр : Progressive House
Дата записи : 2013
Библиотека кодирования : LAME3.98.4
BPM : 128
Обложка : Yes
Тип обложки : Cover (front)
MIME-тип обложки : image/jpeg
Примечание : vk.com/alex_prime : vk.com/id204094519
Аудио
Формат : MPEG Audio
Версия формата : Version 1
Профиль формата : Layer 3
Режим : Joint stereo
Расширение режима : MS Stereo
Продолжительность : 6 м. 4 с.
Вид битрейта : Постоянный
Битрейт : 320 Кбит/сек
Каналы : 2 канала
Частота : 44,1 КГц
Метод сжатия : С потерями
Размер потока : 13,9 Мбайт (97%)
Библиотека кодирования : LAME3.98.4
Общее
Полное имя : D:\Filez\DJ Alex Prime & CJ Modis - INDIGO (2013)\05_DJ Alex Prime - Magnum (Radio Mix).mp3
Формат : MPEG Audio
Размер файла : 7,03 Мбайт
Продолжительность : 2 м. 52 с.
Режим общего битрейта : Постоянный
Общий поток : 320 Кбит/сек
Альбом : INDIGO
Альбом/Исполнитель : DJ Alex Prime & CJ Modis
Трек : Magnum (Radio Mix)
Трек/Положение : 05
Исполнитель : DJ Alex Prime
Композитор : DJ Alex Prime & CJ Modis
Издатель : UDUN Records
Жанр : Electro House
Дата записи : 2013
Библиотека кодирования : LAME3.98.4ЄЄЄЄЄЄЄЄЄЄ
BPM : 128
Обложка : Yes
Тип обложки : Cover (front)
MIME-тип обложки : image/jpeg
Примечание : vk.com/alex_prime : vk.com/id204094519
Аудио
Формат : MPEG Audio
Версия формата : Version 1
Профиль формата : Layer 3
Режим : Joint stereo
Продолжительность : 2 м. 52 с.
Вид битрейта : Постоянный
Битрейт : 320 Кбит/сек
Каналы : 2 канала
Частота : 44,1 КГц
Метод сжатия : С потерями
Размер потока : 6,57 Мбайт (93%)
Библиотека кодирования : LAME3.98.4ЄЄЄЄЄЄЄЄЄЄ
Общее
Полное имя : D:\Filez\DJ Alex Prime & CJ Modis - INDIGO (2013)\06_CJ Modis - Love Me Or Hate Me (Original Mix).mp3
Формат : MPEG Audio
Размер файла : 7,67 Мбайт
Продолжительность : 3 м. 8 с.
Режим общего битрейта : Постоянный
Общий поток : 320 Кбит/сек
Альбом : INDIGO
Альбом/Исполнитель : DJ Alex Prime & CJ Modis
Трек : Love Me Or Hate Me (Original Mix)
Трек/Положение : 06
Исполнитель : CJ Modis
Композитор : DJ Alex Prime & CJ Modis
Издатель : UDUN Records
Жанр : Instrumental
Дата записи : 2013
Библиотека кодирования : LAME3.98.4ЄЄЄЄЄЄЄЄ
BPM : 62
Обложка : Yes
Тип обложки : Cover (front)
MIME-тип обложки : image/jpeg
Примечание : vk.com/alex_prime : vk.com/id204094519
Аудио
Формат : MPEG Audio
Версия формата : Version 1
Профиль формата : Layer 3
Режим : Joint stereo
Продолжительность : 3 м. 9 с.
Вид битрейта : Постоянный
Битрейт : 320 Кбит/сек
Каналы : 2 канала
Частота : 44,1 КГц
Метод сжатия : С потерями
Размер потока : 7,21 Мбайт (94%)
Библиотека кодирования : LAME3.98.4ЄЄЄЄЄЄЄЄ
Общее
Полное имя : D:\Filez\DJ Alex Prime & CJ Modis - INDIGO (2013)\07_DJ Alex Prime - Cici (Original Mix).mp3
Формат : MPEG Audio
Размер файла : 5,90 Мбайт
Продолжительность : 2 м. 22 с.
Режим общего битрейта : Постоянный
Общий поток : 320 Кбит/сек
Альбом : INDIGO
Альбом/Исполнитель : DJ Alex Prime & CJ Modis
Трек : Cici (Original Mix)
Трек/Положение : 07
Исполнитель : DJ Alex Prime
Композитор : DJ Alex Prime & CJ Modis
Издатель : UDUN Records
Жанр : Trap
Дата записи : 2013
Библиотека кодирования : LAME3.98.4ЄЄЄЄЄЄЄЄЄЄ
BPM : 90
Обложка : Yes
Тип обложки : Cover (front)
MIME-тип обложки : image/jpeg
Примечание : vk.com/alex_prime : vk.com/id204094519
Аудио
Формат : MPEG Audio
Версия формата : Version 1
Профиль формата : Layer 3
Режим : Joint stereo
Продолжительность : 2 м. 22 с.
Вид битрейта : Постоянный
Битрейт : 320 Кбит/сек
Каналы : 2 канала
Частота : 44,1 КГц
Метод сжатия : С потерями
Размер потока : 5,44 Мбайт (92%)
Библиотека кодирования : LAME3.98.4ЄЄЄЄЄЄЄЄЄЄ
Общее
Полное имя : D:\Filez\DJ Alex Prime & CJ Modis - INDIGO (2013)\08_CJ Modis - Stars Crashing Down (Original Mix).mp3
Формат : MPEG Audio
Размер файла : 10,2 Мбайт
Продолжительность : 4 м. 15 с.
Режим общего битрейта : Постоянный
Общий поток : 320 Кбит/сек
Альбом : INDIGO
Альбом/Исполнитель : DJ Alex Prime & CJ Modis
Трек : Stars Crashing Down (Original Mix)
Трек/Положение : 08
Исполнитель : CJ Modis
Композитор : DJ Alex Prime & CJ Modis
Издатель : UDUN Records
Жанр : Instrumental
Дата записи : 2013
Обложка : Yes
Тип обложки : Cover (front)
MIME-тип обложки : image/jpeg
Примечание : vk.com/alex_prime : vk.com/id204094519
Аудио
Формат : MPEG Audio
Версия формата : Version 1
Профиль формата : Layer 3
Режим : Joint stereo
Продолжительность : 4 м. 15 с.
Вид битрейта : Постоянный
Битрейт : 320 Кбит/сек
Каналы : 2 канала
Частота : 44,1 КГц
Метод сжатия : С потерями
Размер потока : 9,74 Мбайт (96%)
Общее
Полное имя : D:\Filez\DJ Alex Prime & CJ Modis - INDIGO (2013)\09_DJ Alex Prime - Trubetchino Anthem (Radio Mix).mp3
Формат : MPEG Audio
Размер файла : 9,55 Мбайт
Продолжительность : 3 м. 58 с.
Режим общего битрейта : Постоянный
Общий поток : 320 Кбит/сек
Альбом : INDIGO
Альбом/Исполнитель : DJ Alex Prime & CJ Modis
Трек : Trubetchino Anthem (Radio Mix)
Трек/Положение : 09
Исполнитель : DJ Alex Prime
Композитор : DJ Alex Prime & CJ Modis
Издатель : UDUN Records
Жанр : House
Дата записи : 2013
BPM : 128
Правообладатель : DJ Alex Prime
Обложка : Yes
Тип обложки : Cover (front)
MIME-тип обложки : image/jpeg
Примечание : vk.com/alex_prime : vk.com/id204094519
URL : http://vk.com/alex_prime
Аудио
Формат : MPEG Audio
Версия формата : Version 1
Профиль формата : Layer 3
Режим : Joint stereo
Продолжительность : 3 м. 58 с.
Вид битрейта : Постоянный
Битрейт : 320 Кбит/сек
Каналы : 2 канала
Частота : 44,1 КГц
Метод сжатия : С потерями
Размер потока : 9,09 Мбайт (95%)
Общее
Полное имя : D:\Filez\DJ Alex Prime & CJ Modis - INDIGO (2013)\10_CJ Modis - Double Trouble (Original Mix).mp3
Формат : MPEG Audio
Размер файла : 9,72 Мбайт
Продолжительность : 4 м. 2 с.
Режим общего битрейта : Постоянный
Общий поток : 320 Кбит/сек
Альбом : INDIGO
Альбом/Исполнитель : DJ Alex Prime & CJ Modis
Трек : Double Trouble (Original Mix)
Трек/Положение : 10
Исполнитель : CJ Modis
Композитор : DJ Alex Prime & CJ Modis
Издатель : UDUN Records
Жанр : Instrumental
Дата записи : 2013
Обложка : Yes
Тип обложки : Cover (front)
MIME-тип обложки : image/jpeg
Примечание : vk.com/alex_prime : vk.com/id204094519
Аудио
Формат : MPEG Audio
Версия формата : Version 1
Профиль формата : Layer 3
Режим : Joint stereo
Продолжительность : 4 м. 3 с.
Вид битрейта : Постоянный
Битрейт : 320 Кбит/сек
Каналы : 2 канала
Частота : 44,1 КГц
Метод сжатия : С потерями
Размер потока : 9,27 Мбайт (95%)
Общее
Полное имя : D:\Filez\DJ Alex Prime & CJ Modis - INDIGO (2013)\11_CJ Modis - Midnight Silence (Original Mix).mp3
Формат : MPEG Audio
Размер файла : 7,21 Мбайт
Продолжительность : 2 м. 57 с.
Режим общего битрейта : Постоянный
Общий поток : 320 Кбит/сек
Альбом : INDIGO
Альбом/Исполнитель : DJ Alex Prime & CJ Modis
Трек : Midnight Silence (Original Mix)
Трек/Положение : 11
Исполнитель : CJ Modis
Композитор : DJ Alex Prime & CJ Modis
Издатель : UDUN Records
Жанр : House
Дата записи : 2013
Обложка : Yes
Тип обложки : Cover (front)
MIME-тип обложки : image/jpeg
Примечание : vk.com/alex_prime : vk.com/id204094519
Аудио
Формат : MPEG Audio
Версия формата : Version 1
Профиль формата : Layer 3
Режим : Joint stereo
Продолжительность : 2 м. 57 с.
Вид битрейта : Постоянный
Битрейт : 320 Кбит/сек
Каналы : 2 канала
Частота : 44,1 КГц
Метод сжатия : С потерями
Размер потока : 6,75 Мбайт (94%)
Общее
Полное имя : D:\Filez\DJ Alex Prime & CJ Modis - INDIGO (2013)\12_Данила Раств - Как я мог любить такую (DJ Alex Prime & CJ Modis Remix).mp3
Формат : MPEG Audio
Размер файла : 8,68 Мбайт
Продолжительность : 3 м. 35 с.
Режим общего битрейта : Постоянный
Общий поток : 320 Кбит/сек
Альбом : INDIGO
Альбом/Исполнитель : DJ Alex Prime & CJ Modis
Трек : Как я мог любить такую (DJ Alex Prime & CJ Modis Remix)
Трек/Положение : 12
Исполнитель : Данила Раств
Композитор : DJ Alex Prime & CJ Modis
Издатель : UDUN Records
Жанр : Instrumental Pop
Дата записи : 2013
Библиотека кодирования : LAME3.98.ffyKЌ¤L’™€
BPM : 87
Обложка : Yes
Тип обложки : Cover (front)
MIME-тип обложки : image/jpeg
Примечание : vk.com/alex_prime : vk.com/id204094519
Аудио
Формат : MPEG Audio
Версия формата : Version 1
Профиль формата : Layer 3
Режим : Joint stereo
Продолжительность : 3 м. 35 с.
Вид битрейта : Постоянный
Битрейт : 320 Кбит/сек
Каналы : 2 канала
Частота : 44,1 КГц
Метод сжатия : С потерями
Размер потока : 8,22 Мбайт (95%)
Библиотека кодирования : LAME3.98.ffyKЌ¤L’™€
Общее
Полное имя : D:\Filez\DJ Alex Prime & CJ Modis - INDIGO (2013)\13_Карина - Лето (DJ Alex Prime & CJ Modis Remix).mp3
Формат : MPEG Audio
Размер файла : 13,2 Мбайт
Продолжительность : 5 м. 33 с.
Режим общего битрейта : Постоянный
Общий поток : 320 Кбит/сек
Альбом : INDIGO
Альбом/Исполнитель : DJ Alex Prime & CJ Modis
Трек : Лето (DJ Alex Prime & CJ Modis Remix)
Трек/Положение : 13
Исполнитель : Карина
Композитор : DJ Alex Prime & CJ Modis
Издатель : UDUN Records
Жанр : Progressive House
Дата записи : 2013
Библиотека кодирования : LAME3.98.4
BPM : 128
Обложка : Yes
Тип обложки : Cover (front)
MIME-тип обложки : image/jpeg
Примечание : vk.com/alex_prime : vk.com/id204094519
Аудио
Формат : MPEG Audio
Версия формата : Version 1
Профиль формата : Layer 3
Режим : Joint stereo
Расширение режима : MS Stereo
Продолжительность : 5 м. 34 с.
Вид битрейта : Постоянный
Битрейт : 320 Кбит/сек
Каналы : 2 канала
Частота : 44,1 КГц
Метод сжатия : С потерями
Размер потока : 12,7 Мбайт (97%)
Библиотека кодирования : LAME3.98.4
Время раздачи: с 08:00 до 23:00
Яндекс.Метрика
Рейтинг@Mail.ru