[ Сегодня на трекере фрилич! Идет свободное скачивание без начисления Download ]

(Melodic Death Metal) Children Of Bodom - Halo Of Blood (Japanese SHM Edition) - 2013, FLAC (image+.cue), lossless

 

Создавать темы 18-Ноя-2013 01:24

Children Of Bodom / Halo Of Blood (Japanese SHM Edition)
Жанр: Melodic Death Metal
Страна-производитель диска: Japan
Год издания: 2013
Издатель (лейбл): Avalon
Номер по каталогу: MIZP-30005
Страна: Finland
Аудиокодек: FLAC (*.flac)
Тип рипа: image+.cue
Битрейт аудио: lossless
Продолжительность: 49:30
Источник (релизер): Web
Наличие сканов в содержимом раздачи: нет
Треклист:
01. Waste Of Skin
02. Halo Of Blood
03. Scream For Silence
04. Transference
05. Bodom Blue Moon (The Second Coming)
06. The Days Are Numbered
07. Dead Man's Hand On You
08. Damage Beyond Repair
09. All Twisted
10. One Bottle And A Knee Deep
11. Crazy Nights (Loudness Cover)
12. Sleeping In My Car (Roxette Cover)

Лог создания рипа

Exact Audio Copy V0.99 prebeta 5 from 4. May 2009
EAC extraction logfile from 26. July 2013, 10:49
Children Of Bodom / Halo Of Blood [MIZP-30005]
Used drive : MITSUMI CR-48XETE Adapter: 0 ID: 0
Read mode : SecureUtilize accurate stream : YesDefeat audio cache : YesMake use of C2 pointers : No
Read offset correction : 12Overread into Lead-In and Lead-Out : NoFill up missing offset samples with silence : YesDelete leading and trailing silent blocks : NoNull samples used in CRC calculations : YesUsed interface : Installed external ASPI interface
Used output format : User Defined EncoderSelected bitrate : 1024 kBit/sQuality : HighAdd ID3 tag : NoCommand line compressor : C:\Program Files\Exact Audio Copy\Flac\flac.exeAdditional command line options : -6 -V %s
TOC of the extracted CD
Track | Start | Length | Start sector | End sector --------------------------------------------------------- 1 | 0:00.00 | 4:16.14 | 0 | 19213 2 | 4:16.14 | 3:12.33 | 19214 | 33646 3 | 7:28.47 | 4:09.39 | 33647 | 52360 4 | 11:38.11 | 3:58.20 | 52361 | 70230 5 | 15:36.31 | 4:14.14 | 70231 | 89294 6 | 19:50.45 | 3:40.47 | 89295 | 105841 7 | 23:31.17 | 4:57.43 | 105842 | 128159 8 | 28:28.60 | 4:20.42 | 128160 | 147701 9 | 32:49.27 | 4:51.72 | 147702 | 169598 10 | 37:41.24 | 4:04.49 | 169599 | 187947 11 | 41:45.73 | 4:25.33 | 187948 | 207855 12 | 46:11.31 | 3:19.09 | 207856 | 222789
Range status and errors
Selected range
Filename C:\Vadim\FLAC\CoB\Children Of Bodom - Halo Of Blood [MIZP-30005].wav
Peak level 100.0 % Range quality 100.0 % Copy CRC 517F7420 Copy OK
No errors occurred
End of status report

Содержание индексной карты (.CUE)

REM GENRE "Melodic Death Metal"REM DATE 1971REM DISCID 940B9A0CREM COMMENT "ExactAudioCopy v0.99pb5"REM FOR /*spam*/ ONLYPERFORMER "Children Of Bodom"TITLE "Halo Of Blood [MIZP-30005]"FILE "Children Of Bodom - Halo Of Blood [MIZP-30005].wav" WAVE TRACK 01 AUDIO TITLE "Waste Of Skin" PERFORMER "Children Of Bodom" INDEX 01 00:00:00 TRACK 02 AUDIO TITLE "Halo Of Blood" PERFORMER "Children Of Bodom" INDEX 01 04:16:14 TRACK 03 AUDIO TITLE "Scream For Silence" PERFORMER "Children Of Bodom" INDEX 01 07:28:47 TRACK 04 AUDIO TITLE "Transference" PERFORMER "Children Of Bodom" INDEX 01 11:38:11 TRACK 05 AUDIO TITLE "Bodom Blue Moon (The Second Coming)" PERFORMER "Children Of Bodom" INDEX 01 15:36:31 TRACK 06 AUDIO TITLE "The Days Are Numbered" PERFORMER "Children Of Bodom" INDEX 01 19:50:45 TRACK 07 AUDIO TITLE "Dead Man's Hand On You" PERFORMER "Children Of Bodom" INDEX 01 23:31:17 TRACK 08 AUDIO TITLE "Damage Beyond Repair" PERFORMER "Children Of Bodom" INDEX 01 28:28:60 TRACK 09 AUDIO TITLE "All Twisted" PERFORMER "Children Of Bodom" INDEX 01 32:49:27 TRACK 10 AUDIO TITLE "One Bottle And A Knee Deep" PERFORMER "Children Of Bodom" INDEX 01 37:41:24 TRACK 11 AUDIO TITLE "Crazy Nights (Loudness Cover)" PERFORMER "Children Of Bodom" INDEX 01 41:45:73 TRACK 12 AUDIO TITLE "Sleeping In My Car (Roxette Cover)" PERFORMER "Children Of Bodom" INDEX 01 46:11:31

Лог проверки качества

[CUETools log; Date: 17/11/2013 20:28:30; Version: 2.1.4][CTDB TOCID: jrbZT8zdwGPEN4o0mYxFJ7NPBpg-] found.Track | CTDB Status 1 | (3/3) Accurately ripped 2 | (3/3) Accurately ripped 3 | (3/3) Accurately ripped 4 | (3/3) Accurately ripped 5 | (3/3) Accurately ripped 6 | (3/3) Accurately ripped 7 | (3/3) Accurately ripped 8 | (3/3) Accurately ripped 9 | (3/3) Accurately ripped 10 | (3/3) Accurately ripped 11 | (3/3) Accurately ripped 12 | (3/3) Accurately ripped[AccurateRip ID: 0015e415-00cdc487-940b9a0c] found.Track [ CRC | V2 ] Status 01 [38a6c772|db813681] (0+3/3) Accurately ripped 02 [f4047b2d|78f90f50] (0+3/3) Accurately ripped 03 [c806442b|4aae4c83] (0+3/3) Accurately ripped 04 [3139be12|dcfb09af] (0+3/3) Accurately ripped 05 [fcc4eafe|13eab021] (0+3/3) Accurately ripped 06 [8cd9004c|286385fc] (0+3/3) Accurately ripped 07 [2c4425c4|da06dc65] (0+3/3) Accurately ripped 08 [6aedd523|481b10e6] (0+3/3) Accurately ripped 09 [55b35606|0fb9419b] (0+3/3) Accurately ripped 10 [7dcdf74e|df676013] (0+3/3) Accurately ripped 11 [2e585d02|93c585bf] (0+3/3) Accurately ripped 12 [55f08798|74ad4e0a] (0+3/3) Accurately ripped
Track Peak [ CRC32 ] [W/O NULL] [ LOG ] -- 100,0 [517F7420] [8E856060] CRC32 01 99,9 [7A06BB3A] [55AE185C] 02 100,0 [0C1C508A] [0085CFE1] 03 99,9 [1F364E8E] [809D4C0A] 04 99,9 [936C7A65] [6F788F49] 05 100,0 [E97E2D12] [F4C3AA76] 06 100,0 [60E24BCC] [CE366D73] 07 99,9 [30362F2E] [583D250F] 08 99,9 [D18ACFDE] [3E14CB04] 09 99,9 [BEC06E6C] [68122E69] 10 99,9 [F757A515] [FFA70DCA] 11 99,9 [533F817A] [2C969CC5] 12 99,9 [248FBB7B] [22F6C59A]

Яндекс.Метрика
Рейтинг@Mail.ru