[ Сегодня на трекере фрилич! Идет свободное скачивание без начисления Download ]

VA - Тазы Качают (2012) [MP3|128 кб/с]<Rap/Hip-Hop>

 

Создавать темы 19-Дек-2014 11:21

-VA - Тазы Качают (2012)- Год: 2012
Жанр: Rap/Hip-Hop
Продолжительность: 1:01:44
Кодек: MP3
Битрейт: 128-320 кб/с
Тип битрейта: CBR
Трек лист:
01.А.Р. - Стёкла не по ГОСТу
02.Bizaro - Люби маму, папу, рэп и громкие девятки
03.Bizaro - Города
04.Bizaro - Девяточка
05.EmTim - Тазик с басcом
06.ArtiФАКТ a.k.a. TuzBass feat. Bizaro - Музыка В Тазик
07.First - Громкие Тазы
08.GanGuBaS - Тазы валят ( rmx new version B-LETT instr )
09.Stavelli - Дым в потолок (Тазики)
10.Stavelli - Крутимся дальше (Crown-Lee Rec.)
11.Stavelli - Спасибо за асфальт(Тазики)
12.Li - Черная девятка (Not HollyWood Prod.)
13.TuzBass feat. Bizaro - Тазы решают, пацаны качают
14.VA - Восьмера Димы
15.Жигуль – Я зайду за тобой
16.Жигуль - Картина из жизни
17.ЖИГУЛЬ - Тазики ВАЗики
18.Жигуль feat MIROMID - Cреди тачил
19.Лёша Маэстро – Баллада о бомбилах (Remix)
20.Седьмой - Девятка обгоняет мерседес

MEDIAINFO

Общее
Полное имя : D:\Torrents\VA - Тазы Качают\01.А.Р. - Стёкла не по ГОСТу 2.mp3
Формат : MPEG Audio
Размер файла : 3,53 Мбайт
Продолжительность : 3 м. 51 с.
Режим общего битрейта : Постоянный
Общий поток : 128 Кбит/сек
Аудио
Формат : MPEG Audio
Версия формата : Version 1
Профиль формата : Layer 3
Продолжительность : 3 м. 51 с.
Вид битрейта : Постоянный
Битрейт : 128 Кбит/сек
Каналы : 2 канала
Частота : 44,1 КГц
Метод сжатия : С потерями
Размер потока : 3,53 Мбайт (100%)
Общее
Полное имя : D:\Torrents\VA - Тазы Качают\02.Bizaro - Люби маму, папу, рэп и громкие девятки .mp3
Формат : MPEG Audio
Размер файла : 4,12 Мбайт
Продолжительность : 3 м. 0 с.
Режим общего битрейта : Постоянный
Общий поток : 192 Кбит/сек
Аудио
Формат : MPEG Audio
Версия формата : Version 1
Профиль формата : Layer 3
Режим : Joint stereo
Продолжительность : 3 м. 0 с.
Вид битрейта : Постоянный
Битрейт : 192 Кбит/сек
Каналы : 2 канала
Частота : 44,1 КГц
Метод сжатия : С потерями
Размер потока : 4,12 Мбайт (100%)
Общее
Полное имя : D:\Torrents\VA - Тазы Качают\03.Bizaro - Города.mp3
Формат : MPEG Audio
Размер файла : 3,93 Мбайт
Продолжительность : 2 м. 51 с.
Режим общего битрейта : Постоянный
Общий поток : 192 Кбит/сек
Аудио
Формат : MPEG Audio
Версия формата : Version 1
Профиль формата : Layer 3
Режим : Joint stereo
Продолжительность : 2 м. 52 с.
Вид битрейта : Постоянный
Битрейт : 192 Кбит/сек
Каналы : 2 канала
Частота : 44,1 КГц
Метод сжатия : С потерями
Размер потока : 3,93 Мбайт (100%)
Общее
Полное имя : D:\Torrents\VA - Тазы Качают\04.Bizaro - Девяточка.mp3
Формат : MPEG Audio
Размер файла : 5,44 Мбайт
Продолжительность : 3 м. 57 с.
Режим общего битрейта : Постоянный
Общий поток : 192 Кбит/сек
Аудио
Формат : MPEG Audio
Версия формата : Version 1
Профиль формата : Layer 3
Режим : Joint stereo
Продолжительность : 3 м. 58 с.
Вид битрейта : Постоянный
Битрейт : 192 Кбит/сек
Каналы : 2 канала
Частота : 44,1 КГц
Метод сжатия : С потерями
Размер потока : 5,44 Мбайт (100%)
Общее
Полное имя : D:\Torrents\VA - Тазы Качают\05.EmTim - Тазик с басcом (2012) .mp3
Формат : MPEG Audio
Размер файла : 6,28 Мбайт
Продолжительность : 2 м. 44 с.
Режим общего битрейта : Постоянный
Общий поток : 320 Кбит/сек
Библиотека кодирования : LAME3.98.4
Аудио
Формат : MPEG Audio
Версия формата : Version 1
Профиль формата : Layer 3
Режим : Joint stereo
Продолжительность : 2 м. 44 с.
Вид битрейта : Постоянный
Битрейт : 320 Кбит/сек
Каналы : 2 канала
Частота : 44,1 КГц
Метод сжатия : С потерями
Размер потока : 6,27 Мбайт (100%)
Библиотека кодирования : LAME3.98.4
Общее
Полное имя : D:\Torrents\VA - Тазы Качают\06.ArtiФАКТ a.k.a. TuzBass feat. Bizaro - Музыка В Тазик.mp3
Формат : MPEG Audio
Размер файла : 3,94 Мбайт
Продолжительность : 2 м. 52 с.
Режим общего битрейта : Постоянный
Общий поток : 192 Кбит/сек
Аудио
Формат : MPEG Audio
Версия формата : Version 1
Профиль формата : Layer 3
Режим : Joint stereo
Продолжительность : 2 м. 52 с.
Вид битрейта : Постоянный
Битрейт : 192 Кбит/сек
Каналы : 2 канала
Частота : 44,1 КГц
Метод сжатия : С потерями
Размер потока : 3,94 Мбайт (100%)
Общее
Полное имя : D:\Torrents\VA - Тазы Качают\07.First - Громкие Тазы..mp3
Формат : MPEG Audio
Размер файла : 3,32 Мбайт
Продолжительность : 2 м. 25 с.
Режим общего битрейта : Постоянный
Общий поток : 192 Кбит/сек
Аудио
Формат : MPEG Audio
Версия формата : Version 1
Профиль формата : Layer 3
Режим : Joint stereo
Продолжительность : 2 м. 25 с.
Вид битрейта : Постоянный
Битрейт : 192 Кбит/сек
Каналы : 2 канала
Частота : 44,1 КГц
Метод сжатия : С потерями
Размер потока : 3,32 Мбайт (100%)
Общее
Полное имя : D:\Torrents\VA - Тазы Качают\08.GanGuBaS - Тазы валят ( rmx new version B-LETT instr ).mp3
Формат : MPEG Audio
Размер файла : 7,02 Мбайт
Продолжительность : 3 м. 4 с.
Режим общего битрейта : Постоянный
Общий поток : 320 Кбит/сек
Аудио
Формат : MPEG Audio
Версия формата : Version 1
Профиль формата : Layer 3
Режим : Joint stereo
Продолжительность : 3 м. 4 с.
Вид битрейта : Постоянный
Битрейт : 320 Кбит/сек
Каналы : 2 канала
Частота : 44,1 КГц
Метод сжатия : С потерями
Размер потока : 7,02 Мбайт (100%)
Общее
Полное имя : D:\Torrents\VA - Тазы Качают\09.Stavelli - Дым в потолок (Тазики).mp3
Формат : MPEG Audio
Размер файла : 7,76 Мбайт
Продолжительность : 3 м. 23 с.
Режим общего битрейта : Постоянный
Общий поток : 320 Кбит/сек
Аудио
Формат : MPEG Audio
Версия формата : Version 1
Профиль формата : Layer 3
Режим : Joint stereo
Продолжительность : 3 м. 23 с.
Вид битрейта : Постоянный
Битрейт : 320 Кбит/сек
Каналы : 2 канала
Частота : 44,1 КГц
Метод сжатия : С потерями
Размер потока : 7,76 Мбайт (100%)
Общее
Полное имя : D:\Torrents\VA - Тазы Качают\10.Stavelli - Крутимся дальше (Crown-Lee Rec.).mp3
Формат : MPEG Audio
Размер файла : 6,94 Мбайт
Продолжительность : 3 м. 1 с.
Режим общего битрейта : Постоянный
Общий поток : 320 Кбит/сек
Аудио
Формат : MPEG Audio
Версия формата : Version 1
Профиль формата : Layer 3
Режим : Joint stereo
Продолжительность : 3 м. 2 с.
Вид битрейта : Постоянный
Битрейт : 320 Кбит/сек
Каналы : 2 канала
Частота : 44,1 КГц
Метод сжатия : С потерями
Размер потока : 6,94 Мбайт (100%)
Общее
Полное имя : D:\Torrents\VA - Тазы Качают\11.Stavelli - Спасибо за асфальт(Тазики).mp3
Формат : MPEG Audio
Размер файла : 6,77 Мбайт
Продолжительность : 2 м. 57 с.
Режим общего битрейта : Постоянный
Общий поток : 320 Кбит/сек
Аудио
Формат : MPEG Audio
Версия формата : Version 1
Профиль формата : Layer 3
Режим : Joint stereo
Продолжительность : 2 м. 57 с.
Вид битрейта : Постоянный
Битрейт : 320 Кбит/сек
Каналы : 2 канала
Частота : 44,1 КГц
Метод сжатия : С потерями
Размер потока : 6,77 Мбайт (100%)
Общее
Полное имя : D:\Torrents\VA - Тазы Качают\12.Li - Черная девятка (Not HollyWood Prod.) .mp3
Формат : MPEG Audio
Размер файла : 6,49 Мбайт
Продолжительность : 2 м. 50 с.
Режим общего битрейта : Постоянный
Общий поток : 320 Кбит/сек
Аудио
Формат : MPEG Audio
Версия формата : Version 1
Профиль формата : Layer 3
Продолжительность : 2 м. 50 с.
Вид битрейта : Постоянный
Битрейт : 320 Кбит/сек
Каналы : 2 канала
Частота : 44,1 КГц
Метод сжатия : С потерями
Размер потока : 6,49 Мбайт (100%)
Общее
Полное имя : D:\Torrents\VA - Тазы Качают\13.TuzBass feat. Bizaro - Тазы решают, пацаны качают.mp3
Формат : MPEG Audio
Размер файла : 4,12 Мбайт
Продолжительность : 3 м. 0 с.
Режим общего битрейта : Постоянный
Общий поток : 192 Кбит/сек
Аудио
Формат : MPEG Audio
Версия формата : Version 1
Профиль формата : Layer 3
Режим : Joint stereo
Продолжительность : 3 м. 0 с.
Вид битрейта : Постоянный
Битрейт : 192 Кбит/сек
Каналы : 2 канала
Частота : 44,1 КГц
Метод сжатия : С потерями
Размер потока : 4,12 Мбайт (100%)
Общее
Полное имя : D:\Torrents\VA - Тазы Качают\14.VA - Восьмера Димы.mp3
Формат : MPEG Audio
Размер файла : 5,37 Мбайт
Продолжительность : 2 м. 55 с.
Режим общего битрейта : Постоянный
Общий поток : 256 Кбит/сек
Аудио
Формат : MPEG Audio
Версия формата : Version 1
Профиль формата : Layer 3
Режим : Joint stereo
Расширение режима : MS Stereo
Продолжительность : 2 м. 55 с.
Вид битрейта : Постоянный
Битрейт : 256 Кбит/сек
Каналы : 2 канала
Частота : 48,0 КГц
Метод сжатия : С потерями
Размер потока : 5,37 Мбайт (100%)
Общее
Полное имя : D:\Torrents\VA - Тазы Качают\15.Жигуль – Я зайду за тобой.mp3
Формат : MPEG Audio
Размер файла : 6,14 Мбайт
Продолжительность : 3 м. 49 с.
Режим общего битрейта : Постоянный
Общий поток : 224 Кбит/сек
Аудио
Формат : MPEG Audio
Версия формата : Version 1
Профиль формата : Layer 3
Режим : Joint stereo
Продолжительность : 3 м. 50 с.
Вид битрейта : Постоянный
Битрейт : 224 Кбит/сек
Каналы : 2 канала
Частота : 44,1 КГц
Метод сжатия : С потерями
Размер потока : 6,14 Мбайт (100%)
Общее
Полное имя : D:\Torrents\VA - Тазы Качают\16.Жигуль - Картина из жизни.mp3
Формат : MPEG Audio
Размер файла : 5,17 Мбайт
Продолжительность : 3 м. 13 с.
Режим общего битрейта : Постоянный
Общий поток : 224 Кбит/сек
Аудио
Формат : MPEG Audio
Версия формата : Version 1
Профиль формата : Layer 3
Режим : Joint stereo
Продолжительность : 3 м. 13 с.
Вид битрейта : Постоянный
Битрейт : 224 Кбит/сек
Каналы : 2 канала
Частота : 44,1 КГц
Метод сжатия : С потерями
Размер потока : 5,17 Мбайт (100%)
Общее
Полное имя : D:\Torrents\VA - Тазы Качают\17.ЖИГУЛЬ (OutS1der Prod) - Тазики ВАЗики.mp3
Формат : MPEG Audio
Размер файла : 4,82 Мбайт
Продолжительность : 3 м. 0 с.
Режим общего битрейта : Постоянный
Общий поток : 224 Кбит/сек
Аудио
Формат : MPEG Audio
Версия формата : Version 1
Профиль формата : Layer 3
Режим : Joint stereo
Продолжительность : 3 м. 0 с.
Вид битрейта : Постоянный
Битрейт : 224 Кбит/сек
Каналы : 2 канала
Частота : 44,1 КГц
Метод сжатия : С потерями
Размер потока : 4,82 Мбайт (100%)
Общее
Полное имя : D:\Torrents\VA - Тазы Качают\18.Жигуль feat MIROMID - Cреди тачил.mp3
Формат : MPEG Audio
Размер файла : 5,34 Мбайт
Продолжительность : 3 м. 20 с.
Режим общего битрейта : Постоянный
Общий поток : 224 Кбит/сек
Аудио
Формат : MPEG Audio
Версия формата : Version 1
Профиль формата : Layer 3
Режим : Joint stereo
Продолжительность : 3 м. 20 с.
Вид битрейта : Постоянный
Битрейт : 224 Кбит/сек
Каналы : 2 канала
Частота : 44,1 КГц
Метод сжатия : С потерями
Размер потока : 5,34 Мбайт (100%)
Общее
Полное имя : D:\Torrents\VA - Тазы Качают\19.Лёша Маэстро – Баллада о бомбилах (Remix).mp3
Формат : MPEG Audio
Размер файла : 5,50 Мбайт
Продолжительность : 2 м. 24 с.
Режим общего битрейта : Постоянный
Общий поток : 320 Кбит/сек
Библиотека кодирования : LAME3.98.2
Аудио
Формат : MPEG Audio
Версия формата : Version 1
Профиль формата : Layer 3
Режим : Joint stereo
Продолжительность : 2 м. 24 с.
Вид битрейта : Постоянный
Битрейт : 320 Кбит/сек
Каналы : 2 канала
Частота : 44,1 КГц
Метод сжатия : С потерями
Размер потока : 5,50 Мбайт (100%)
Библиотека кодирования : LAME3.98.2
Общее
Полное имя : D:\Torrents\VA - Тазы Качают\20.Седьмой - Девятка обгоняет мерседес.mp3
Формат : MPEG Audio
Размер файла : 6,92 Мбайт
Продолжительность : 3 м. 1 с.
Режим общего битрейта : Постоянный
Общий поток : 320 Кбит/сек
Аудио
Формат : MPEG Audio
Версия формата : Version 1
Профиль формата : Layer 3
Режим : Joint stereo
Продолжительность : 3 м. 1 с.
Вид битрейта : Постоянный
Битрейт : 320 Кбит/сек
Каналы : 2 канала
Частота : 44,1 КГц
Метод сжатия : С потерями
Размер потока : 6,92 Мбайт (100%)
Общее
Полное имя : D:\Torrents\VA - Тазы Качают\cover.jpg
Формат : JPEG
Размер файла : 86,0 Кбайт
Изображения
Формат : JPEG
Ширина : 400 пикселей
Высота : 400 пикселей
Цветовое пространство : YUV
Субдискретизация насыщенности : 4:2:0
Битовая глубина : 8 бит
Метод сжатия : С потерями
Размер потока : 86,0 Кбайт (100%)
Время раздачи: 24/7
Яндекс.Метрика
Рейтинг@Mail.ru