VA - Rap/Hip-Hop Of The 1990s - The Best (1990-1999) [MP3|320 кб/с]<Rap/Hip-Hop>

 

Создавать темы 19-Дек-2014 11:21

-VA - Rap/Hip-Hop Of The 1990s - The Best (1990-1999)- Год: 1990-1999
Жанр: Rap/Hip-Hop
Продолжительность: 09:59:26
Кодек: MP3
Битрейт: 320 кб/с
Тип битрейта: CBR
Трек лист:
1. Eightball & MJG - Mr. Big (5:51)
2. 8Ball & MJG - Comin' Out Hard (4:28)
3. 8Ball & MJG - The First Episode (5:08)
4. A Tribe Called Quest - 8 Million Stories (4:21)
5. A Tribe Called Quest - A Tribe Called Quest - Can I Kick It? (4:12)
6. A Tribe Called Quest - Excursions (3:54)
7. A Tribe Called Quest - I Left My Wallet In El Segundo (4:06)
8. A Tribe Called Quest - Push It Along (4:31)
9. Beastie Boys - In 3's (2:23)
10. Beastie Boys - Professor Booty (4:12)
11. Gravediggaz - 1-800-Suicide (4:14)
12. Showbiz & A.G. - Catchin' Wreck (4:15)
13. Showbiz & A.G. - Fat Pockets (3:37)

продолжение&#58;

14. Showbiz & A.G. - Hard To Kill (5:14)
15. Wu-Tang Clan - Visionz (3:09)
16. Black Moon - Slave (2:44)
17. Black Moon - Son Get Wrec (3:29)
18. Organized Konfusion - Stray Bullet (3:41)
19. Souls Of Mischief - Live And Let Live (5:20)
20. Souls Of Mischief - 93 'Til Infinity (4:46)
21. Souls Of Mischief - What A Way To Go Out (4:00)
22. Blackalicious - A To G (2:27)
23. Blackalicious - As The World Turns (4:43)
24. Blackalicious - If I May (3:45)
25. Geto Boys - Another Nigger In The Morgue (3:14)
26. Jeru The Damaja - Ain't The Devil Happy (3:44)
27. Jeru The Damaja - Brooklyn Took It (3:23)
28. Mobb Deep - Give It Up Fast (4:00)
29. Mobb Deep - Hell On Earth (4:34)
30. Mobb Deep - Shook Ones (4:12)
31. Big Punisher - Fast Money (3:48)
32. Brand Nubian - All For One (1:46)
33. Brand Nubian - Brand Nubian (4:01)
34. Brand Nubian - Who Can Get Busy Like This Man (4:30)
35. Camp Lo - Negro League (3:23)
36. Camp Lo - Park Joint (3:27)
37. Common - Hungry (2:33)
38. Common - Food For Funk (4:10)
39. Common - Invocation (2:14)
40. Goodie Mob - I Didn't Ask To Come (4:08)
41. Goodie Mob - Still Standing (4:52)
42. Goodie Mob - The Day After (5:00)
43. Goodie Mob - Dirty South (3:34)
44. Ice Cube - You Can't Fade Me (5:12)
45. Ice Cube - Once Upon A Time In The Projects (3:41)
46. Ice Cube - A Bird In the Hand (2:17)
47. Ice Cube - Color Blind (4:29)
48. Ice Cube - Dead Homiez (3:55)
49. Ice Cube - Man's Best Friend (2:06)
50. Da Brat - Fire It Up (3:30)
51. Da Brat - Ain't No Thang (3:54)
52. Da Brat - Da Shit Ya Can't Fuc Wit (2:24)
53. Method Man - All I Need (3:15)
54. Dr. Octagon - 3000 (3:20)
55. Dr. Octagon - Blue Flowers Revisited (4:15)
56. Dr. Octagon - Earth People (4:58)
57. Dr. Octagon - Girl Let Me Touch You (3:40)
58. Run DMC - Ooh, Watcha Gonna Do (3:06)
59. Naughty By Nature - 1. 2. 3. (4:44)
60. Naughty by Nature - Dirt All By My Lonely (3:14)
61. Naughty By Nature - Hip Hop Hooray (4:25)
62. Kool G Rap & Dj Polo - Bad To The Bone (5:26)
63. Kool G Rap & DJ Polo - Death Wish (4:04)
64. Kool G Rap & DJ Polo - Home Sweet Home (2:39)
65. Kool G Rap & D.J. Polo - Street Blues (3:49)
66. Kool G Rap & DJ Polo - Jive Talk (4:35)
67. Kool G Rap & DJ Polo - On The Run (4:13)
68. Kool G Rap & DJ Polo - Streets Of New York (4:23)
69. Kool G Rap & DJ Polo - Talk Like Sex (5:12)
70. Jay-Z - Where I'm From (4:26)
71. De La Soul - Millie Pulled A Pistol On Santa (4:09)
72. Del tha Funkee Homosapien - Dark Skin Girls (4:28)
73. Del tha Funkee Homosapien - Same Ol' Thing (4:20)
74. Diamond D - Check One, Two (4:15)
75. Diamond D - Best Kept Secret (4:07)
76. Diamond D - Feel The Vibe (3:41)
77. Diamond D - K.I.S.S. (3:54)
78. Diamond D - Red Light, Green Light (5:02)
79. Dr. Dre - Housewife (4:02)
80. Dr. Dre - Still D.R.E. (4:33)
81. Dr. Dre - The Message (5:30)
82. Company Flow - 8 Steps to Perfection (4:42)
83. Company Flow - Lune TNS (3:38)
84. Public Enemy - 1 Million Bottlebags (4:06)
85. Public Enemy - A Letter To The New York Post (2:45)
86. Public Enemy - By The Time I Get To Arizona (4:06)
87. Public Enemy - How To Kill A Radio Consultant (3:09)
88. Digable Planets - La Femme Fetal (4:35)
89. Digable Planets - The Art Of Easing (5:06)
90. Fugees - Fu-Gee-La (4:19)
91. The Fugees - Ready Or Not (3:47)
92. Eric B. & Rakim - Don't Sweat the Technique (4:21)
93. Eric B. & Rakim - Keep 'em Eager to Listen (4:43)
94. Eric B. & Rakim - Know The Ledge (3:58)
95. Eric B. & Rakim - Let the Rhythm Hit 'em (5:28)
96. Eric B. & Rakim - Relax With Pep (4:00)
97. Eric B & Rakim - Rest Assured (3:36)
98. Eric B. & Rakim - Set 'em Straight (4:33)
99. Eric 100. Redman - Jam 4 U (3:05)
101. Redman - Rated "R" (3:21)
102. Redman - Redman Meets Reggie Noble (2:31)
103. Inspectah Deck - 9th Chamber (2:51)
104. Inspectah Deck - Friction (3:36)
105. Mase - The Player Way (4:13)
106. Mase - Wanna Hurt Mase? (4:23)
107. Mase - What You Want (4:02)
108. Keith Murray - Herb Is Pumpin (2:27)
109. KRS-One - Represent the Real Hip Hop (3:21)
110. Most Def - Mathematics (3:46)
111. Gang Starr - 2 Deep (3:38)
112. Gang Starr - Beyond Comprehension (3:15)
113. Gang Starr - Brainstorm (3:01)
114. Gang Starr - Hardcore Composer (3:16)
115. Gang Starr - In Memory Of (3:49)
116. Gang Starr - Just To Get A Rep (2:37)
117. Gang Starr - Moment Of Truth (4:06)
118. Gang Starr - No Shame In My Game (3:55)
119. Gang Starr - She Knowz What She Wantz (3:00)
120. Gang Starr - Stay Tuned (2:31)
121. Eminem - Guilty Conscience (3:19)
122. Eminem - If I Had (4:05)
123. Ice T - New Jack Hustler (4:43)
124. Ice-T - Ed (1:10)
125. Ice-T - Pulse Of The Rhyme (4:16)
126. Ice-T - The Tower (3:57)
127. Killah Priest - One Step (4:20)
128. Killah Priest - Blessed Are Those (3:27)
129. N.W.A. - One Less Bitch (4:47)
130. N.W.A - Appetite For Destruction (3:07)
131. Main Source - Live At The Barbecue (4:34)
132. Main Source - Just A Friendly Game Of Baseball (3:21)
133. Main Source - Looking At The Front Door (4:11)
134. Nas - N.Y. State Of Mind (4:55)
135. NaS - Shootouts (3:46)
136. Scarface – No Tears (2:25)
137. The Notorious B.I.G. - I Got a Story to Tell (4:42)
138. The Notorious B.I.G. - Niggas Bleed (4:51)
139. The Notorious B.I.G - What's Beef (5:15)
140. The Notorious B.I.G. - Gimme The Loot (5:04)
141. 2Pac – Ambitionz (4:40)
142. 2Pac - Hail Mary (5:12)
143. 2Pac - Heartz Of Men (4:41)
144. 2Pac - How Do U Want It feat. KC & Jojo (4:47)
145. 2Pac - It Ain't Easy (4:54)
146. 2Pac - No More Pain (6:14)
147. 2 Pac - Only God Can Judge Me (4:56)
148. 2pac - Picture Me Rollin' (5:14)
149. 2Pac - Trading War Stories feat (5:29)
150. Jungle Brothers - How Ya Want it (3:56)

mediainfo&#58;

Общее
Полное имя : D:\MEDIA\Audio\RAP\01-mr._big.mp3
Формат : MPEG Audio
Размер файла : 13,4 Мбайт
Продолжительность : 5 м. 51 с.
Режим общего битрейта : Постоянный
Общий поток : 320 Кбит/сек
Альбом : Comin' Out Hard
Альбом/Исполнитель : Eightball & MJG
Трек : Mr. Big
Трек/Положение : 7
Исполнитель : Eightball & MJG
Издатель : Rapture Records
Жанр : Rap & Hip-Hop
Дата записи : 1993
Библиотека кодирования : LAME3.91ЄЄЄЄЄЄЄЄЄЄЄЄ
Примечание :
Аудио
Формат : MPEG Audio
Версия формата : Version 1
Профиль формата : Layer 3
Продолжительность : 5 м. 52 с.
Вид битрейта : Постоянный
Битрейт : 320 Кбит/сек
Каналы : 2 канала
Частота : 44,1 КГц
Метод сжатия : С потерями
Размер потока : 13,4 Мбайт (100%)
Библиотека кодирования : LAME3.91ЄЄЄЄЄЄЄЄЄЄЄЄ
Общее
Полное имя : D:\MEDIA\Audio\RAP\02-Eightball MJG - Comin' Out Hard.mp3
Формат : MPEG Audio
Размер файла : 10,5 Мбайт
Продолжительность : 4 м. 28 с.
Режим общего битрейта : Постоянный
Общий поток : 320 Кбит/сек
Альбом : Comin' Out Hard
Альбом/Исполнитель : Eightball & MJG
Трек : Comin' Out Hard
Трек/Положение : 06
Исполнитель : 8Ball & MJG
Издатель : Rapture Records
Жанр : Southern Rap
Дата записи : 1993
Библиотека кодирования : LAME3.98r
Обложка : Yes
Тип обложки : Cover (front)
MIME-тип обложки : image/jpeg
Аудио
Формат : MPEG Audio
Версия формата : Version 1
Профиль формата : Layer 3
Режим : Joint stereo
Продолжительность : 4 м. 28 с.
Вид битрейта : Постоянный
Битрейт : 320 Кбит/сек
Каналы : 2 канала
Частота : 44,1 КГц
Метод сжатия : С потерями
Размер потока : 10,2 Мбайт (97%)
Библиотека кодирования : LAME3.98r
Настройки программы : -m j -V 4 -q 3 -lowpass 20.5
Общее
Полное имя : D:\MEDIA\Audio\RAP\03-Eightball MJG - The First Episode.mp3
Формат : MPEG Audio
Размер файла : 12,0 Мбайт
Продолжительность : 5 м. 8 с.
Режим общего битрейта : Постоянный
Общий поток : 320 Кбит/сек
Альбом : Comin' Out Hard
Альбом/Исполнитель : Eightball & MJG
Трек : The First Episode
Трек/Положение : 03
Исполнитель : 8Ball & MJG
Издатель : Rapture Records
Жанр : Rap
Дата записи : 1993
Библиотека кодирования : LAME3.98r
Обложка : Yes
Тип обложки : Cover (front)
MIME-тип обложки : image/jpeg
Аудио
Формат : MPEG Audio
Версия формата : Version 1
Профиль формата : Layer 3
Режим : Joint stereo
Продолжительность : 5 м. 9 с.
Вид битрейта : Постоянный
Битрейт : 320 Кбит/сек
Каналы : 2 канала
Частота : 44,1 КГц
Метод сжатия : С потерями
Размер потока : 11,8 Мбайт (98%)
Библиотека кодирования : LAME3.98r
Настройки программы : -m j -V 4 -q 3 -lowpass 20.5
Общее
Полное имя : D:\MEDIA\Audio\RAP\04-A Tribe Called Quest - 8 Million Stories.mp3
Формат : MPEG Audio
Размер файла : 9,99 Мбайт
Продолжительность : 4 м. 21 с.
Режим общего битрейта : Постоянный
Общий поток : 320 Кбит/сек
Альбом : Midnight Marauders
Альбом/Исполнитель : A Tribe Called Quest
Трек : 8 Million Stories
Трек/Положение : 04
Исполнитель : A Tribe Called Quest
Композитор : Ali Shaheed Muhammad/Jonathan Davis/Malik Taylor/Phife Dawg/Q-Tip/Skeff Anselm/Skip Anselm
Кодирование произвёл :
Издатель : BMG
Жанр : Hip-Hop
Дата записи : 1993
Библиотека кодирования : LAME3.97
Аудио
Формат : MPEG Audio
Версия формата : Version 1
Профиль формата : Layer 3
Режим : Joint stereo
Расширение режима : MS Stereo
Продолжительность : 4 м. 22 с.
Вид битрейта : Постоянный
Битрейт : 320 Кбит/сек
Каналы : 2 канала
Частота : 44,1 КГц
Метод сжатия : С потерями
Размер потока : 9,99 Мбайт (100%)
Библиотека кодирования : LAME3.97
Общее
Полное имя : D:\MEDIA\Audio\RAP\05-A Tribe Called Quest - Can I Kick It.mp3
Формат : MPEG Audio
Размер файла : 9,65 Мбайт
Продолжительность : 4 м. 12 с.
Режим общего битрейта : Постоянный
Общий поток : 320 Кбит/сек
Альбом : People's Instinctive Travels and the Paths of Rhythm
Альбом/Исполнитель : A Tribe Called Quest
Трек : A Tribe Called Quest - Can I Kick It?
Трек/Положение : 8
Исполнитель : A Tribe Called Quest
Издатель : BMG
Жанр : Hip hop
Дата записи : 1990
Библиотека кодирования : LAME3.97.3
Аудио
Формат : MPEG Audio
Версия формата : Version 1
Профиль формата : Layer 3
Режим : Joint stereo
Расширение режима : MS Stereo
Продолжительность : 4 м. 13 с.
Вид битрейта : Постоянный
Битрейт : 320 Кбит/сек
Каналы : 2 канала
Частота : 44,1 КГц
Метод сжатия : С потерями
Размер потока : 9,65 Мбайт (100%)
Библиотека кодирования : LAME3.97.3
Общее
Полное имя : D:\MEDIA\Audio\RAP\06-A Tribe Called Quest - Excursions.mp3
Формат : MPEG Audio
Размер файла : 8,96 Мбайт
Продолжительность : 3 м. 54 с.
Режим общего битрейта : Постоянный
Общий поток : 320 Кбит/сек
Альбом : The Low End Theory
Трек : Excursions
Трек/Положение : 01
Исполнитель : A Tribe Called Quest
Жанр : Hip-Hop, Jazz Rap
Дата записи : 1991
Библиотека кодирования : LAME3.98r
Обложка : Yes
Тип обложки : Cover (front)
MIME-тип обложки : image/jpeg
Примечание :
Аудио
Формат : MPEG Audio
Версия формата : Version 1
Профиль формата : Layer 3
Режим : Joint stereo
Расширение режима : MS Stereo
Продолжительность : 3 м. 54 с.
Вид битрейта : Постоянный
Битрейт : 320 Кбит/сек
Каналы : 2 канала
Частота : 44,1 КГц
Метод сжатия : С потерями
Размер потока : 8,94 Мбайт (100%)
Библиотека кодирования : LAME3.98r
Настройки программы : -m j -V 4 -q 3 -lowpass 20.5
Общее
Полное имя : D:\MEDIA\Audio\RAP\07-A Tribe Called Quest - I Left My Wallet In El Segundo.mp3
Формат : MPEG Audio
Размер файла : 9,39 Мбайт
Продолжительность : 4 м. 6 с.
Режим общего битрейта : Постоянный
Общий поток : 320 Кбит/сек
Альбом : The Anthology
Трек : I Left My Wallet In El Segundo
Трек/Положение : 10
Трек/Всего : 19
Исполнитель : A Tribe Called Quest
Жанр : Rap
Дата записи : 2000
Библиотека кодирования : LAME3.93
Примечание :
Аудио
Формат : MPEG Audio
Версия формата : Version 1
Профиль формата : Layer 3
Режим : Joint stereo
Расширение режима : MS Stereo
Продолжительность : 4 м. 6 с.
Вид битрейта : Постоянный
Битрейт : 320 Кбит/сек
Каналы : 2 канала
Частота : 44,1 КГц
Метод сжатия : С потерями
Размер потока : 9,39 Мбайт (100%)
Библиотека кодирования : LAME3.93
Общее
Полное имя : D:\MEDIA\Audio\RAP\08-A Tribe Called Quest - Push It Along.mp3
Формат : MPEG Audio
Размер файла : 10,4 Мбайт
Продолжительность : 4 м. 31 с.
Режим общего битрейта : Постоянный
Общий поток : 320 Кбит/сек
Альбом : People's Instinctive Travels
Трек : Push It Along
Исполнитель : A Tribe Called Quest
Жанр : Other
Дата записи : 1990
Аудио
Формат : MPEG Audio
Версия формата : Version 1
Профиль формата : Layer 3
Режим : Dual mono
Продолжительность : 4 м. 31 с.
Вид битрейта : Постоянный
Битрейт : 320 Кбит/сек
Каналы : 2 канала
Частота : 44,1 КГц
Метод сжатия : С потерями
Размер потока : 10,4 Мбайт (100%)
Общее
Полное имя : D:\MEDIA\Audio\RAP\09-Beastie Boys - In 3's.mp3
Формат : MPEG Audio
Размер файла : 5,47 Мбайт
Продолжительность : 2 м. 23 с.
Режим общего битрейта : Постоянный
Общий поток : 320 Кбит/сек
Альбом : Check Your Head
Трек : In 3's
Трек/Положение : 19
Исполнитель : Beastie Boys
Библиотека кодирования : LAME3.98r
Аудио
Формат : MPEG Audio
Версия формата : Version 1
Профиль формата : Layer 3
Режим : Joint stereo
Расширение режима : MS Stereo
Продолжительность : 2 м. 23 с.
Вид битрейта : Постоянный
Битрейт : 320 Кбит/сек
Каналы : 2 канала
Частота : 44,1 КГц
Метод сжатия : С потерями
Размер потока : 5,46 Мбайт (100%)
Библиотека кодирования : LAME3.98r
Настройки программы : -m j -V 4 -q 3 -lowpass 20.5
Общее
Полное имя : D:\MEDIA\Audio\RAP\10-Beastie Boys - Professor Booty.mp3
Формат : MPEG Audio
Размер файла : 9,65 Мбайт
Продолжительность : 4 м. 12 с.
Режим общего битрейта : Постоянный
Общий поток : 320 Кбит/сек
Альбом : Check Your Head
Трек : Professor Booty
Трек/Положение : 18
Исполнитель : Beastie Boys
Жанр : Hip-Hop
Дата записи : 2009
Библиотека кодирования : LAME3.98r
Аудио
Формат : MPEG Audio
Версия формата : Version 1
Профиль формата : Layer 3
Режим : Joint stereo
Расширение режима : MS Stereo
Продолжительность : 4 м. 12 с.
Вид битрейта : Постоянный
Битрейт : 320 Кбит/сек
Каналы : 2 канала
Частота : 44,1 КГц
Метод сжатия : С потерями
Размер потока : 9,64 Мбайт (100%)
Библиотека кодирования : LAME3.98r
Настройки программы : -m j -V 4 -q 3 -lowpass 20.5
Общее
Полное имя : D:\MEDIA\Audio\RAP\100-Redman - Jam 4 U.mp3
Формат : MPEG Audio
Размер файла : 7,19 Мбайт
Продолжительность : 3 м. 5 с.
Режим общего битрейта : Постоянный
Общий поток : 320 Кбит/сек
Альбом : Whut? Thee Album
Трек : Jam 4 U
Трек/Положение : 9
Исполнитель : Redman
Жанр : Hip-Hop
Дата записи : 1992
Библиотека кодирования : LAME3.98r
Обложка : Yes
Тип обложки : Cover (front)
MIME-тип обложки : image/jpeg
Аудио
Формат : MPEG Audio
Версия формата : Version 1
Профиль формата : Layer 3
Режим : Joint stereo
Расширение режима : MS Stereo
Продолжительность : 3 м. 6 с.
Вид битрейта : Постоянный
Битрейт : 320 Кбит/сек
Каналы : 2 канала
Частота : 44,1 КГц
Метод сжатия : С потерями
Размер потока : 7,09 Мбайт (99%)
Библиотека кодирования : LAME3.98r
Настройки программы : -m j -V 4 -q 2 -lowpass 20.5
Общее
Полное имя : D:\MEDIA\Audio\RAP\101-Redman - Rated R.mp3
Формат : MPEG Audio
Размер файла : 7,67 Мбайт
Продолжительность : 3 м. 21 с.
Режим общего битрейта : Постоянный
Общий поток : 320 Кбит/сек
Альбом : Whut? Thee Album
Трек : Rated "R"
Трек/Положение : 6
Исполнитель : Redman
Кодирование произвёл :
Издатель : Def Jam
Жанр : Rap
Дата записи : 1992
Библиотека кодирования : LAME3.93
Примечание :
Аудио
Формат : MPEG Audio
Версия формата : Version 1
Профиль формата : Layer 3
Продолжительность : 3 м. 21 с.
Вид битрейта : Постоянный
Битрейт : 320 Кбит/сек
Каналы : 2 канала
Частота : 48,0 КГц
Метод сжатия : С потерями
Размер потока : 7,67 Мбайт (100%)
Библиотека кодирования : LAME3.93
Общее
Полное имя : D:\MEDIA\Audio\RAP\102-Redman - Redman Meets Reggie Noble.mp3
Формат : MPEG Audio
Размер файла : 5,77 Мбайт
Продолжительность : 2 м. 31 с.
Режим общего битрейта : Постоянный
Общий поток : 320 Кбит/сек
Альбом : Whut? Thee Album
Альбом/Исполнитель : Redman
Трек : Redman Meets Reggie Noble
Трек/Положение : 13
Трек/Всего : 21
Исполнитель : Redman
Композитор : Redman
Издатель : Import
Жанр : Rap
Дата записи : 1992
Библиотека кодирования : LAME3.93
Примечание :
Аудио
Формат : MPEG Audio
Версия формата : Version 1
Профиль формата : Layer 3
Режим : Joint stereo
Расширение режима : MS Stereo
Продолжительность : 2 м. 31 с.
Вид битрейта : Постоянный
Битрейт : 320 Кбит/сек
Каналы : 2 канала
Частота : 44,1 КГц
Метод сжатия : С потерями
Размер потока : 5,77 Мбайт (100%)
Библиотека кодирования : LAME3.93
Общее
Полное имя : D:\MEDIA\Audio\RAP\103-Inspectah Deck - 9th Chamber.mp3
Формат : MPEG Audio
Размер файла : 6,75 Мбайт
Продолжительность : 2 м. 51 с.
Режим общего битрейта : Постоянный
Общий поток : 320 Кбит/сек
Альбом : Uncontrolled Substance
Альбом/Исполнитель : Inspectah Deck
Трек : 9th Chamber (feat. La The Darkman, Barretta 9, Killa Sin & Streetlife)
Трек/Положение : 03
Исполнитель : Inspectah Deck
Композитор : J. Grant/J.K. Hunter/L. Jackson/P. Charles/S. Bougard/S. Murray
Издатель : Relativity
Жанр : Hip-Hop
Дата записи : 1999
Библиотека кодирования : LAME3.98
Обложка : Yes
Тип обложки : Cover (front)
MIME-тип обложки : image/jpeg
Аудио
Формат : MPEG Audio
Версия формата : Version 1
Профиль формата : Layer 3
Режим : Joint stereo
Продолжительность : 2 м. 51 с.
Вид битрейта : Постоянный
Битрейт : 320 Кбит/сек
Каналы : 2 канала
Частота : 44,1 КГц
Метод сжатия : С потерями
Размер потока : 6,53 Мбайт (97%)
Библиотека кодирования : LAME3.98
Настройки программы : -m j -V 4 -q 3 -lowpass 20.5
Общее
Полное имя : D:\MEDIA\Audio\RAP\104-Inspectah Deck - Friction.mp3
Формат : MPEG Audio
Размер файла : 8,46 Мбайт
Продолжительность : 3 м. 36 с.
Режим общего битрейта : Постоянный
Общий поток : 320 Кбит/сек
Альбом : Uncontrolled Substance
Трек : Friction (feat. Masta Killa)
Трек/Положение : 14
Исполнитель : Inspectah Deck
Жанр : Hip-Hop
Дата записи : 1999
Библиотека кодирования : LAME3.98
Обложка : Yes
Тип обложки : Cover (front)
MIME-тип обложки : image/jpeg
Аудио
Формат : MPEG Audio
Версия формата : Version 1
Профиль формата : Layer 3
Режим : Joint stereo
Расширение режима : MS Stereo
Продолжительность : 3 м. 36 с.
Вид битрейта : Постоянный
Битрейт : 320 Кбит/сек
Каналы : 2 канала
Частота : 44,1 КГц
Метод сжатия : С потерями
Размер потока : 8,25 Мбайт (97%)
Библиотека кодирования : LAME3.98
Настройки программы : -m j -V 4 -q 3 -lowpass 20.5
Общее
Полное имя : D:\MEDIA\Audio\RAP\105-the_player_way_feat._eightball_mjg.mp3
Формат : MPEG Audio
Размер файла : 9,69 Мбайт
Продолжительность : 4 м. 13 с.
Режим общего битрейта : Постоянный
Общий поток : 320 Кбит/сек
Альбом : Harlem World
Альбом/Исполнитель : Mase
Трек : The Player Way (Feat. Eightbal
Трек/Положение : 9
Исполнитель : Mase
Композитор : M. Goodwin/Mason Betha/P. Smith/Sean "Puffy" Combs/T. Jones
Издатель : Bad Boy Entertainment
Жанр : Rap & Hip-Hop
Дата записи : 1997
Библиотека кодирования : LAME3.98
Примечание : Òîëüêî äëÿ îçíàêîìëåíèÿ
Аудио
Формат : MPEG Audio
Версия формата : Version 1
Профиль формата : Layer 3
Режим : Joint stereo
Продолжительность : 4 м. 14 с.
Вид битрейта : Постоянный
Битрейт : 320 Кбит/сек
Каналы : 2 канала
Частота : 44,1 КГц
Метод сжатия : С потерями
Размер потока : 9,68 Мбайт (100%)
Библиотека кодирования : LAME3.98
Настройки программы : -m j -V 4 -q 3 -lowpass 20.5
Общее
Полное имя : D:\MEDIA\Audio\RAP\106-wanna_hurt_mase.mp3
Формат : MPEG Audio
Размер файла : 10,0 Мбайт
Продолжительность : 4 м. 23 с.
Режим общего битрейта : Постоянный
Общий поток : 320 Кбит/сек
Альбом : Harlem World
Трек : Wanna Hurt Mase?
Трек/Положение : 19
Исполнитель : Mase
Дата записи : 1997
Библиотека кодирования : LAME3.98
Правообладатель : Make Love Not War
Примечание : Òîëüêî äëÿ îçíàêîìëåíèÿ
Аудио
Формат : MPEG Audio
Версия формата : Version 1
Профиль формата : Layer 3
Режим : Joint stereo
Продолжительность : 4 м. 23 с.
Вид битрейта : Постоянный
Битрейт : 320 Кбит/сек
Каналы : 2 канала
Частота : 44,1 КГц
Метод сжатия : С потерями
Размер потока : 10,0 Мбайт (100%)
Библиотека кодирования : LAME3.98
Настройки программы : -m j -V 4 -q 3 -lowpass 20.5
Общее
Полное имя : D:\MEDIA\Audio\RAP\107-Mase - What You Want feat. Total.mp3
Формат : MPEG Audio
Размер файла : 9,27 Мбайт
Продолжительность : 4 м. 2 с.
Режим общего битрейта : Постоянный
Общий поток : 320 Кбит/сек
Альбом : Harlem World
Альбом/Исполнитель : Mase
Трек : What You Want (feat. Total)
Трек/Положение : 13
Исполнитель : Ma$e
Композитор : Keisha Spivey/Mason Betha/Nasheim Myrick/Sean "Puffy" Combs
Издатель : Bad Boy Entertainment
Жанр : Rap
Дата записи : 1997
Библиотека кодирования : LAME3.97.3ЄЄк
Примечание :
Аудио
Формат : MPEG Audio
Версия формата : Version 1
Профиль формата : Layer 3
Режим : Joint stereo
Расширение режима : MS Stereo
Продолжительность : 4 м. 3 с.
Вид битрейта : Постоянный
Битрейт : 320 Кбит/сек
Каналы : 2 канала
Частота : 44,1 КГц
Метод сжатия : С потерями
Размер потока : 9,27 Мбайт (100%)
Библиотека кодирования : LAME3.97.3ЄЄк
Общее
Полное имя : D:\MEDIA\Audio\RAP\108-Keith Murray - Herb Is Pumpin.mp3
Формат : MPEG Audio
Размер файла : 5,70 Мбайт
Продолжительность : 2 м. 27 с.
Режим общего битрейта : Постоянный
Общий поток : 320 Кбит/сек
Альбом : The Most Beautifullest Thing In This World
Альбом/Исполнитель : Keith Murray
Трек : Herb Is Pumpin
Трек/Положение : 05
Исполнитель : Keith Murray
Композитор : Erick Sermon/Keith Murray
Издатель : Jive
Жанр : Hip Hop
Дата записи : 1994
Библиотека кодирования : LAME3.97
Обложка : Yes
Тип обложки : Cover (front)
MIME-тип обложки : image/jpeg
Аудио
Формат : MPEG Audio
Версия формата : Version 1
Профиль формата : Layer 3
Режим : Joint stereo
Расширение режима : MS Stereo
Продолжительность : 2 м. 27 с.
Вид битрейта : Постоянный
Битрейт : 320 Кбит/сек
Каналы : 2 канала
Частота : 44,1 КГц
Метод сжатия : С потерями
Размер потока : 5,64 Мбайт (99%)
Библиотека кодирования : LAME3.97
Настройки программы : -m j -V 4 -q 5 -lowpass 20.5
Общее
Полное имя : D:\MEDIA\Audio\RAP\109-KRS-One - Represent the Real Hip Hop.mp3
Формат : MPEG Audio
Размер файла : 7,67 Мбайт
Продолжительность : 3 м. 21 с.
Режим общего битрейта : Постоянный
Общий поток : 320 Кбит/сек
Библиотека кодирования : LAME3.97
Аудио
Формат : MPEG Audio
Версия формата : Version 1
Профиль формата : Layer 3
Режим : Joint stereo
Расширение режима : MS Stereo
Продолжительность : 3 м. 21 с.
Вид битрейта : Постоянный
Битрейт : 320 Кбит/сек
Каналы : 2 канала
Частота : 48,0 КГц
Метод сжатия : С потерями
Размер потока : 7,67 Мбайт (100%)
Библиотека кодирования : LAME3.97
Общее
Полное имя : D:\MEDIA\Audio\RAP\11-Gravediggaz - 1-800-Suicide.mp3
Формат : MPEG Audio
Размер файла : 9,80 Мбайт
Продолжительность : 4 м. 14 с.
Режим общего битрейта : Постоянный
Общий поток : 320 Кбит/сек
Альбом : Niggamortis
Альбом/Исполнитель : Gravediggaz
Часть/Положение : 01
Трек : 1-800-Suicide
Трек/Положение : 08
Трек/Всего : 17
Исполнитель : Gravediggaz
Издатель : Gee Street
Дата записи : 1994
Библиотека кодирования : LAME3.92
Обложка : Yes
MIME-тип обложки : image/jpeg
Аудио
Формат : MPEG Audio
Версия формата : Version 1
Профиль формата : Layer 3
Продолжительность : 4 м. 15 с.
Вид битрейта : Постоянный
Битрейт : 320 Кбит/сек
Каналы : 2 канала
Частота : 44,1 КГц
Метод сжатия : С потерями
Размер потока : 9,72 Мбайт (99%)
Библиотека кодирования : LAME3.92
Настройки программы : -m s -V 4 -q 5 -lowpass 21.4
Общее
Полное имя : D:\MEDIA\Audio\RAP\110-Mos Def - Mathematics.mp3
Формат : MPEG Audio
Размер файла : 9,50 Мбайт
Продолжительность : 3 м. 46 с.
Режим общего битрейта : Постоянный
Общий поток : 320 Кбит/сек
Альбом : from greybox: rawmixes
Трек : mathematics // mos def
Трек/Положение : 5
Трек/Всего : 7
Исполнитель : foka
Жанр : Genre_148
Дата записи : 2010
Дата кодирования : UTC 2010-03- 6
Библиотека кодирования : LAME3.96r
Обложка : Yes
MIME-тип обложки : image/jpeg
Аудио
Формат : MPEG Audio
Версия формата : Version 1
Профиль формата : Layer 3
Режим : Joint stereo
Расширение режима : MS Stereo
Продолжительность : 3 м. 46 с.
Вид битрейта : Постоянный
Битрейт : 320 Кбит/сек
Каналы : 2 канала
Частота : 44,1 КГц
Метод сжатия : С потерями
Размер потока : 8,62 Мбайт (91%)
Библиотека кодирования : LAME3.96r
Настройки программы : -m j -V 0 -q 3 -lowpass 20.5
Общее
Полное имя : D:\MEDIA\Audio\RAP\111-Gang Starr - 2 Deep.mp3
Формат : MPEG Audio
Размер файла : 8,35 Мбайт
Продолжительность : 3 м. 38 с.
Режим общего битрейта : Постоянный
Общий поток : 320 Кбит/сек
Альбом : Daily Operation
Альбом/Исполнитель : Gang Starr
Трек : 2 Deep
Трек/Положение : 9
Исполнитель : Gang Starr
Композитор : DJ Premier/Guru
Издатель : Virgin
Жанр : Rap & Hip-Hop
Дата записи : 1992
Аудио
Формат : MPEG Audio
Версия формата : Version 1
Профиль формата : Layer 3
Режим : Joint stereo
Продолжительность : 3 м. 39 с.
Вид битрейта : Постоянный
Битрейт : 320 Кбит/сек
Каналы : 2 канала
Частота : 44,1 КГц
Метод сжатия : С потерями
Размер потока : 8,35 Мбайт (100%)
Общее
Полное имя : D:\MEDIA\Audio\RAP\112-Gang Starr - Beyond Comprehension.mp3
Формат : MPEG Audio
Размер файла : 7,63 Мбайт
Продолжительность : 3 м. 15 с.
Режим общего битрейта : Постоянный
Общий поток : 320 Кбит/сек
Альбом : Step In The Arena
Альбом/Исполнитель : Gang Starr
Трек : Beyond Comprehension
Трек/Положение : 6
Исполнитель : Gang Starr
Оригинал/Исполнитель : Gang Starr
Композитор : DJ Premier/Guru
Кодирование произвёл :
Издатель : Virgin
Жанр : Rap
Дата записи : 1991
Обложка : Yes
MIME-тип обложки : image/jpeg
Аудио
Формат : MPEG Audio
Версия формата : Version 1
Профиль формата : Layer 3
Продолжительность : 3 м. 15 с.
Вид битрейта : Постоянный
Битрейт : 320 Кбит/сек
Каналы : 2 канала
Частота : 44,1 КГц
Метод сжатия : С потерями
Размер потока : 7,46 Мбайт (98%)
Общее
Полное имя : D:\MEDIA\Audio\RAP\113-Gang Starr - Brainstorm.mp3
Формат : MPEG Audio
Размер файла : 7,03 Мбайт
Продолжительность : 3 м. 1 с.
Режим общего битрейта : Постоянный
Общий поток : 320 Кбит/сек
Альбом : Hard To Earn
Альбом/Исполнитель : Gang Starr
Трек : Brainstorm
Трек/Положение : 4
Исполнитель : Gang Starr
Оригинал/Исполнитель : Gang Starr
Композитор : Christopher Martin/Guru/Keith Elam
Кодирование произвёл :
Издатель : Virgin
Жанр : Rap
Дата записи : 1994
Обложка : Yes
MIME-тип обложки : image/jpeg
Аудио
Формат : MPEG Audio
Версия формата : Version 1
Профиль формата : Layer 3
Продолжительность : 3 м. 2 с.
Вид битрейта : Постоянный
Битрейт : 320 Кбит/сек
Каналы : 2 канала
Частота : 44,1 КГц
Метод сжатия : С потерями
Размер потока : 6,94 Мбайт (99%)
Общее
Полное имя : D:\MEDIA\Audio\RAP\114-Gang Starr - Hardcore Composer.mp3
Формат : MPEG Audio
Размер файла : 7,49 Мбайт
Продолжительность : 3 м. 16 с.
Режим общего битрейта : Постоянный
Общий поток : 320 Кбит/сек
Альбом : Daily Operation
Альбом/Исполнитель : Gang Starr
Трек : Hardcore Composer
Трек/Положение : 14
Исполнитель : Gang Starr
Оригинал/Исполнитель : Gang Starr
Кодирование произвёл :
Жанр : Hip-Hop
Дата записи : 1992
Аудио
Формат : MPEG Audio
Версия формата : Version 1
Профиль формата : Layer 3
Продолжительность : 3 м. 16 с.
Вид битрейта : Постоянный
Битрейт : 320 Кбит/сек
Каналы : 2 канала
Частота : 44,1 КГц
Метод сжатия : С потерями
Размер потока : 7,49 Мбайт (100%)
Общее
Полное имя : D:\MEDIA\Audio\RAP\115-Gang Starr - In Memory Of....mp3
Формат : MPEG Audio
Размер файла : 8,96 Мбайт
Продолжительность : 3 м. 50 с.
Режим общего битрейта : Постоянный
Общий поток : 320 Кбит/сек
Альбом : Moment Of Truth
Альбом/Исполнитель : Gang Starr
Трек : In Memory Of...
Трек/Положение : 20
Исполнитель : Gang Starr
Композитор : Chris E. Martin/Keith Elam
Издатель : Noo Trybe
Жанр : Hip-Hop
Дата записи : 1998
Библиотека кодирования : LAME3.98
Обложка : Yes
Тип обложки : Cover (front)
MIME-тип обложки : image/jpeg
Примечание :
Аудио
Формат : MPEG Audio
Версия формата : Version 1
Профиль формата : Layer 3
Режим : Joint stereo
Расширение режима : MS Stereo
Продолжительность : 3 м. 50 с.
Вид битрейта : Постоянный
Битрейт : 320 Кбит/сек
Каналы : 2 канала
Частота : 44,1 КГц
Метод сжатия : С потерями
Размер потока : 8,77 Мбайт (98%)
Библиотека кодирования : LAME3.98
Настройки программы : -m j -V 4 -q 3 -lowpass 20.5
Общее
Полное имя : D:\MEDIA\Audio\RAP\116-Gang Starr - Just To Get A Rep.mp3
Формат : MPEG Audio
Размер файла : 6,36 Мбайт
Продолжительность : 2 м. 37 с.
Режим общего битрейта : Постоянный
Общий поток : 320 Кбит/сек
Альбом : Mass Appeal. The Best Of Gang Starr
Альбом/Исполнитель : Gang Starr
Трек : Just To Get A Rep
Трек/Положение : 15
Исполнитель : Gang Starr
Оригинал/Исполнитель : Gang Starr
Кодирование произвёл :
Жанр : Rap
Дата записи : 2006
Обложка : Yes
MIME-тип обложки : image/jpeg
Аудио
Формат : MPEG Audio
Версия формата : Version 1
Профиль формата : Layer 3
Продолжительность : 2 м. 37 с.
Вид битрейта : Постоянный
Битрейт : 320 Кбит/сек
Каналы : 2 канала
Частота : 44,1 КГц
Метод сжатия : С потерями
Размер потока : 6,01 Мбайт (94%)
Общее
Полное имя : D:\MEDIA\Audio\RAP\117-Gang Starr - Moment Of Truth.mp3
Формат : MPEG Audio
Размер файла : 9,54 Мбайт
Продолжительность : 4 м. 6 с.
Режим общего битрейта : Постоянный
Общий поток : 320 Кбит/сек
Альбом : Moment Of Truth
Альбом/Исполнитель : Gang Starr
Трек : Moment Of Truth
Трек/Положение : 8
Трек/Всего : 20
Исполнитель : Gang Starr
Композитор : DJ Premier
Издатель : Noo Trybe
Жанр : Rap & Hip-Hop
Дата записи : 1998
Обложка : Yes
MIME-тип обложки : image/jpeg
Аудио
Формат : MPEG Audio
Версия формата : Version 1
Профиль формата : Layer 3
Режим : Joint stereo
Продолжительность : 4 м. 7 с.
Вид битрейта : Постоянный
Битрейт : 320 Кбит/сек
Каналы : 2 канала
Частота : 44,1 КГц
Метод сжатия : С потерями
Размер потока : 9,42 Мбайт (99%)
Общее
Полное имя : D:\MEDIA\Audio\RAP\118-Gang Starr - No Shame In My Game.mp3
Формат : MPEG Audio
Размер файла : 9,00 Мбайт
Продолжительность : 3 м. 55 с.
Режим общего битрейта
Яндекс.Метрика
Рейтинг@Mail.ru