[ Сегодня на трекере фрилич! Идет свободное скачивание без начисления Download ]

Снежный барс в зелёном Лондоне / Snow Leopards of Leafy London [01-07 из 7]( Эдриан Кейл / Adrian Cale)[ (2013), Документальный, HDTVRip от Leo.pard | P1]

 

Создавать темы 17-Ноя-2013 16:54

Снежный барс в зелёном Лондоне
Snow Leopards of Leafy London
- Год выпуска: 2013
Страна: США
Жанр: Документальный
Продолжительность: 154 минуты (7 серий по ~22 мин.)
Перевод: Профессиональный (одноголосый закадровый) АРК·ТВ
Русские субтитры: нет-Режиссеры: Эдриан Кейл / Adrian Cale
Описание: Фонд сохранения диких кошек находится в паре минут езды от Лондона. Здесь самое большое поголовье снежных барсов - не считая Азии. "Снежный барс в зелёном Лондоне" - документальная программа, в которой мы покажем неизвестные ранее кадры из жизни кошачьих. Программу ведёт автор фильмов о дикой природе Эдриан Кейл. В ней вы увидите, как в пригороде Лондона ведётся работа по спасению целого вида. Доктор Терри Мур - обыкновенный человек, который необыкновенно сильно любит снежных барсов. Между ним и кошками бесспорно существует некая таинственная связь, и методы его работы мало кто отважится назвать классическими.-Автор рипа: Leo.pard
Исходник: HDTV 1080i Спасибо LeXa 84!-Kачество: HDTVRip
Формат: AVI
Видео: XviD, 720x400 (16:9), ~ 1843 Kbps, 25 fps
Аудио: AC3, 384 Kbps, 48 kHz, 6 channels
Сэмпл: http://multi-up.com/923999

MediaInfo

General
Complete name : D:Snezhnyj.bars.v.zeljonom.Londone.2013.HDTVRipSnezhnyj.bars.v.zeljonom.Londone.E04.2013.HDTVRip.avi
Format : AVI
Format/Info : Audio Video Interleave
File size : 350 MiB
Duration : 21mn 54s
Overall bit rate : 2 236 Kbps
Writing application : VirtualDubMod 1.5.10.3 | www.virtualdub-fr.org || (build 2550/release)
Writing library : VirtualDubMod build 2550/release
Video
ID : 0
Format : MPEG-4 Visual
Format profile : Advanced [email protected]
Format settings, BVOP : 1
Format settings, QPel : No
Format settings, GMC : No warppoints
Format settings, Matrix : Custom
Codec ID : XVID
Codec ID/Hint : XviD
Duration : 21mn 54s
Bit rate : 1 842 Kbps
Width : 720 pixels
Height : 400 pixels
Display aspect ratio : 16:9
Frame rate : 25.000 fps
Color space : YUV
Chroma subsampling : 4:2:0
Bit depth : 8 bits
Scan type : Progressive
Compression mode : Lossy
Bits/(Pixel*Frame) : 0.256
Stream size : 289 MiB (82%)
Writing library : XviD 73
Audio
ID : 1
Format : AC-3
Format/Info : Audio Coding 3
Mode extension : CM (complete main)
Codec ID : 2000
Duration : 21mn 54s
Bit rate mode : Constant
Bit rate : 384 Kbps
Channel(s) : 6 channels
Channel positions : Front: L C R, Side: L R, LFE
Sampling rate : 48.0 KHz
Bit depth : 16 bits
Compression mode : Lossy
Stream size : 60.2 MiB (17%)
Alignment : Split accross interleaves
Interleave, duration : 40 ms (1.00 video frame)
Interleave, preload duration : 500 ms

Скриншоты

Яндекс.Метрика
Рейтинг@Mail.ru