Хищники океанов / Ocean Predators (Benjamin Eicher, Timo Joh. Mayer )[ (2013),Документальный, BDRip 1080p | 3D-Video | halfOU]

 

Создавать темы 17-Ноя-2013 16:38

Хищники океанов
Ocean Predators
- Год выпуска: 2013
Страна: США, Германия (Universal Pictures, Los Banditos Films, Vision Films)
Жанр: Документальный
Продолжительность: 00:57:19
Перевод: Профессиональный дублированный
Режиссеры: Benjamin Eicher, Timo Joh. Mayer
Описание: Присоединяйтесь к захватывающему погружению в глубины океана в поисках самых опасных хищников! Вас ждет немало поразительных открытий об этих завораживающих и умелых охотниках. Острые, как лезвия, зубы и молниеносная реакция - вот главные секреты выживания в безжалостной среде. Долой мифы и легенды - готовы ли Вы узнать настоящую правду об акулах, барракудах и муренах?
Уникальные документальные материалы, снятые с помощью 3D - стереоскопа покажут все, что вы хотели знать о настоящих Королях Океана.-Премьера: 12 ноября 2013
Релиз на Blu-Ray (DVD) (Россия): 21 ноября 2013

Качество: BDRip (by Ash61)
Контейнер: MKV
Формат 3D: Half OverUnder / Вертикальная анаморфная стереопара
Порядок ракурсов: левый ракурс первый
Видео кодек: x264
Аудио кодек: AC3-Видео: AVC / 23,976 fps / 1920х1080p / 18.2 Mbps
Аудио:
#1 - Русский / AC3 / 48 KHz / 2 ch / 448 Kbps (Дубляж - BD 3D)
#2 - Английский / AC3 / 48 KHz / 2 ch / 448 Kbps
Субтитры: Отсутствуют

MediaInfo

General
Unique ID : 241546354159033685694283651104474701663 (0xB5B822B984040C4EAC32F8700E949F5F)
Complete name : E:OceanPredators(2013)3D-halfOU(Ash61).mkv
Format : Matroska
Format version : Version 2
File size : 7.80 GiB
Duration : 57mn 19s
Overall bit rate : 19.5 Mbps
Movie name : Хищники океанов / Ocean Predators (2013) 3D
Encoded date : UTC 2013-11-17 08:45:27
Writing application : mkvmerge v5.8.0 ('No Sleep / Pillow') built on Sep 2 2012 15:37:04
Writing library : libebml v1.2.3 + libmatroska v1.3.0
Video
ID : 1
Format : AVC
Format/Info : Advanced Video Codec
Format profile : [email protected]
Format settings, CABAC : Yes
Format settings, ReFrames : 4 frames
Codec ID : V_MPEG4/ISO/AVC
Duration : 57mn 19s
Bit rate : 18.2 Mbps
Width : 1 920 pixels
Height : 1 080 pixels
Display aspect ratio : 16:9
Frame rate mode : Constant
Frame rate : 23.976 fps
Color space : YUV
Chroma subsampling : 4:2:0
Bit depth : 8 bits
Scan type : Progressive
Bits/(Pixel*Frame) : 0.366
Stream size : 7.29 GiB (93%)
Title : BDRip by Ash61
Writing library : x264 core 129 r2245 bc13772
Encoding settings : cabac=1 / ref=4 / deblock=1:-3:-3 / analyse=0x3:0x113 / me=umh / subme=10 / psy=1 / psy_rd=1.00:0.15 / mixed_ref=1 / me_range=32 / chroma_me=1 / trellis=2 / 8x8dct=1 / cqm=0 / deadzone=21,11 / fast_pskip=1 / chroma_qp_offset=-3 / threads=12 / lookahead_threads=2 / sliced_threads=0 / nr=0 / decimate=1 / interlaced=0 / bluray_compat=0 / constrained_intra=0 / bframes=9 / b_pyramid=2 / b_adapt=2 / b_bias=0 / direct=3 / weightb=1 / open_gop=0 / weightp=2 / keyint=250 / keyint_min=23 / scenecut=40 / intra_refresh=0 / rc_lookahead=60 / rc=crf / mbtree=1 / crf=17.0 / qcomp=0.70 / qpmin=0 / qpmax=69 / qpstep=4 / vbv_maxrate=40000 / vbv_bufsize=30000 / crf_max=0.0 / nal_hrd=none / frame-packing=4 / ip_ratio=1.40 / aq=1:0.70
Language : German
Default : Yes
Forced : No
Audio #1
ID : 2
Format : AC-3
Format/Info : Audio Coding 3
Mode extension : CM (complete main)
Format settings, Endianness : Big
Codec ID : A_AC3
Duration : 57mn 19s
Bit rate mode : Constant
Bit rate : 448 Kbps
Channel(s) : 2 channels
Channel positions : Front: L R
Sampling rate : 48.0 KHz
Bit depth : 16 bits
Compression mode : Lossy
Stream size : 184 MiB (2%)
Title : Дубляж - BD 3D
Language : Russian
Default : Yes
Forced : No
Audio #2
ID : 3
Format : AC-3
Format/Info : Audio Coding 3
Mode extension : CM (complete main)
Format settings, Endianness : Big
Codec ID : A_AC3
Duration : 57mn 19s
Bit rate mode : Constant
Bit rate : 448 Kbps
Channel(s) : 2 channels
Channel positions : Front: L R
Sampling rate : 48.0 KHz
Bit depth : 16 bits
Compression mode : Lossy
Stream size : 184 MiB (2%)
Language : English
Default : No
Forced : No
Menu
00:00:00.000 : :1
00:06:34.561 : :2
00:13:25.596 : :3
00:20:59.967 : :4
00:28:03.515 : :5
00:35:52.859 : :6
00:42:53.404 : :7
00:50:45.042 : :8

Скриншоты:

--
Яндекс.Метрика
Рейтинг@Mail.ru