[ Сегодня на трекере фрилич! Идет свободное скачивание без начисления Download ]

VA - Jazz Fusion - The Best (1969-2012) [MP3|320 кб/с]<Jazz Fusion>

 

Создавать темы 18-Дек-2014 22:22

-VA - Jazz Fusion - The Best (1969-2012)- Год: 1969-2012
Жанр: Jazz Fusion
Продолжительность: 15:50:43
Кодек: MP3
Битрейт: 320 кб/с
Тип битрейта: CBR
Трек лист:
1. Nucleus - Song For The Bearded Lady (7:20)
2. Nucleus - Sun Child (5:14)
3. Nucleus - We'll Talk About It Later (6:14)
4. Nucleus - Ballad Of Joe Pimp (3:44)
5. Nucleus - Easter 1916 (8:47)
6. If - Your City Is Falling (5:07)
7. If - I Couldn't Write And Tell You (8:24)
8. If - A Song For Elsa, Three Days Before Her 25th Birthday (5:46)
9. Jerry Goodman & Jan Hammer - Full Moon Boogie (4:09)
10. Jerry Goodman & Jan Hammer - Giving In Gently I Wonder (4:48)
11. Larry Coryell - The Funky Waltz (5:11)
12. Larry Coryell - Low-Lee-Tah (4:19)
13. Larry Coryell - Yin (6:05)
14. Larry Coryell - Ism-Ejercicio (4:01)

продолжение трек-листа&#58;

15. Various - Stan Getz / Captain Marvel (5:07)
16. Dreams - Try Me (5:10)
17. Dreams - New York (4:55)
18. Brand X - Nuclear Burn (6:23)
19. Brand X - Euthanasia Waltz (5:42)
20. Brand X - Born Ugly (8:15)
21. Carlos Santana & Mahavishnu John McLaughlin - Naima (3:12)
22. Carlos Santana & Mahavishnu John McLaughlin - Let Us Go Into The House Of The Lord (15:45)
23. Hatfield And The North - Lounging There Trying (3:15)
24. Hatfield And The North - The Yes, No Interlude (7:01)
25. Hatfield And The North - Underdub (3:54)
26. Isotope - Spanish Sun (7:49)
27. Isotope - Golden Section (5:13)
28. Isotope - Marin County Girl (2:06)
29. Chicago - South California Purples (6:10)
30. Chicago - I'm A Man (7:42)
31. Frank Zappa - Shut Up 'N Play Yer Guitar (5:38)
32. Frank Zappa - Eat That Question (6:42)
33. Frank Zappa - While You Were Out (6:00)
34. Frank Zappa - Blessed Relief (8:00)
35. Frank Zappa - Treacherous Cretins (5:34)
36. Passport - Homunculus (6:17)
37. Passport - Cross-Collateral (13:33)
38. Passport - Jadoo (3:08)
39. Flora Purim - Stories To Tell (3:41)
40. Flora Purim - Search For Peace (5:53)
41. Flora Purim - Ta Say Goodbye (4:05)
42. Mahavishnu Orchestra - Dream (11:10)
43. Mahavishnu Orchestra - Sister Andrea (6:47)
44. Mahavishnu Orchestra - I Wonder (3:10)
45. Mahavishnu Orchestra - John's Song (5:53)
46. Mark & Almond - One More For The Road (6:51)
47. Mark & Almond - Busy On The Line (4:58)
48. Stanley Clarke - School Days (7:51)
49. Stanley Clarke - Desert Song (6:56)
50. Return To Forever - Light As A Feather (11:00)
51. Return To Forever - 500 Miles High (9:10)
52. Return to Forever - Majestic Dance (5:00)
53. Allan Holdsworth - Zarabeth (6:31)
54. Allan Holdsworth - Questions (4:07)
55. Allan Holdsworth - Wish (4:23)
56. Blood, Sweat & Tears - God Bless The Child (5:55)
57. Blood, Sweat & Tears - Spinning Wheel (4:08)
58. Blood, Sweat & Tears - You've Made Me So Very Happy (4:19)
59. Blood, Sweat & Tears - Blues - Part (11:45)
60. Blood, Sweat & Tears - Go Down Gamblin` (4:15)
61. Blood, Sweat & Tears - Redemption (5:15)
62. Pat Metheny - Tell It All (7:55)
63. Pat Metheny - Lone Jack (6:43)
64. Pat Metheny - Are You Going With Me (8:51)
65. Gong - Heavy Tune (6:25)
66. Gong - Soli (7:39)
67. Gong - Boring (6:26)
68. John McLaughlin - My Favorite Things (6:17)
69. John McLaughlin - Encuentros (7:32)
70. John McLaughlin - Afro Blue (6:54)
71. John McLaughlin - Friendship (7:02)
72. John McLaughlin - Every Tear From Every Eye (6:52)
73. John McLaughlin - Do You Hear The Voices You Left Behind? (7:41)
74. Christian McBride - Boogie Woogie Waltz (9:10)
75. Christian McBride - Clerow's Flipped (6:05)
76. Christian McBride - Lejos De Usted (4:54)
77. Christian McBride - Sitting on a Cloud (5:46)
78. Christian McBride - Technicolor Nightmare (8:28)
79. Christian McBride Quartet - Say Something (6:04)
80. Miroslav Vitous - I Will Tell Him On You (11:00)
81. Miroslav Vitous - Infinite Search (6:46)
82. Steps Ahead - Islands (6:27)
83. Steps Ahead - Skyward Bound (4:08)
84. Lonnie Liston Smith & The Cosm - Expansions (6:08)
85. Lonnie Liston Smith & The Cosmic Echoes - Desert Nights (6:44)
86. Lonnie Liston Smith & The Cosmic Echoes - Voodoo Woman (4:23)
87. Jean-Luc Ponty - Mirage (4:53)
88. Billy Cobham - Quadrant 4 (4:21)
89. Billy Cobham - Red Baron (7:44)
90. Billy Cobham - Spectrum (4:57)
91. Billy Cobham - Stratus (6:30)
92. John Scofield - Techno (7:30)
93. John Scofield - Picks And Pans (5:26)
94. Marc Johnson - Thrill Seekers (8:37)
95. Marc Johnson - Prayer Beads (3:56)
96. Marc Johnson - 1951 (5:06)
97. Marc Johnson - Hymn For Her (6:38)
98. Andy Summers - Ruffled Feathers (4:29)
99. Andy Summers - Bacchante (6:20)
100. Andy Summers - Oudu Kanjaira (5:23)
101. National Health - Brujo (10:14)
102. Miles Davis - Spanish Key (17:34)
103. Chad Wackerman - You Came Along (4:10)
104. Chad Wackerman - Fearless (1:32)
105. Chad Wackerman - Hidden Places (4:02)
106. Weather Report - Umbrellas (3:28)
107. Weather Report - Seventh Arrow (5:24)
108. The Don Ellis Orchestra - Alone (5:32)
109. The Don Ellis Orchestra - Turkish Bath (10:31)
110. Scott Kinsey - Quartet (5:36)
111. Scott Kinsey - Sometimes (5:02)
112. Metro - Nimbus (6:06)
113. Vinnie Colaiuta - Slink (5:57)
114. Vinnie Colaiuta - Bruce Lee (6:00)
115. Tom Coster - Jazz Lament (4:42)
116. Tom Coster - Shall We (4:51)
117. Tom Coster - Blues For D C (4:43)
118. Scott Henderson & Tribal Tech - Saturn 5 (7:23)
119. Scott Henderson & Tribal Tech - Stella By Infra-Red High Particle Neutron Beam (6:25)
120. Scott Henderson & Tribal Tech - Jalapeno (5:42)
121. Scott Henderson & Tribal Tech - Thick (11:15)
122. Scott Henderson & Tribal Tech - Mini Me (6:17)
123. Scott Henderson & Tribal Tech - Susie's Dingsbums (7:40)
124. Scott Henderson & Tribal Tech - Hole In The Head (11:53)
125. CAB - Dennis (5:15)
126. CAB - South Side (7:26)
127. CAB - Top Spin (8:07)
128. Planet X - The Thinking Stone (4:14)
129. Planet X - Ataraxia (6:17)
130. Derek Sherinian & Planet X - 06 Interlude In Milan (4:40)
131. Traffic - Hidden Treasure (4:11)
132. Traffic - Light Up Or Leave Me Alone (4:50)
133. Traffic - Rainmaker (7:53)
134. Traffic - Rock 'N' Roll Stew Parts 1 & 2 (6:09)
135. Vital Tech Tones (Steve Smith, Scott Henderson, Victor Wooten) - Crash Course (7:00)
136. Vital Tech Tones (Steve Smith, Scott Henderson, Victor Wooten) - Snake Soda (5:35)
137. Vital Tech Tones (Steve Smith, Scott Henderson, Victor Wooten) - SubZero (7:06)
138. Vital Tech Tones (Steve Smith, Scott Henderson, Victor Wooten) - Dr. Hee (8:56)
139. Vital Tech Tones (Steve Smith, Scott Henderson, Victor Wooten) - Everglades (9:41)
140. Vital Tech Tones (Steve Smith, Scott Henderson, Victor Wooten) - Drums Stop, No Good (3:11)
141. Vital Tech Tones (Steve Smith, Scott Henderson, Victor Wooten) - Two For One (5:21)
142. Vital Tech Tones (Steve Smith, Scott Henderson, Victor Wooten) - Catch Me If U Can (4:24)
143. Vital Tech Tones (Steve Smith, Scott Henderson, Victor Wooten) - Who Knew (7:13)
144. Vital Tech Tones (Steve Smith, Scott Henderson, Victor Wooten) - Time Tunnel (4:38)
145. The Michael Landau Group - Delano (5:03)
146. The Michael Landau Group - Spider Time (7:42)
147. The Michael Landau Group - The Big Black Bear (5:51)
148. The Michael Landau Group - Big Sur Howl (6:16)
149. The Michael Landau Group - Woolly Mammoth (7:44)
150. The Michael Landau Group - Smoke (3:32)

mediainfo&#58;

Общее
Полное имя : D:\MEDIA\Audio\Jazz Fusion\01-song_for_the_bearded_lady.mp3
Формат : MPEG Audio
Размер файла : 16,8 Мбайт
Продолжительность : 7 м. 20 с.
Режим общего битрейта : Постоянный
Общий поток : 320 Кбит/сек
Альбом : We'll Talk About It Later
Альбом/Исполнитель : Nucleus
Трек : Song For The Bearded Lady
Трек/Положение : 1
Исполнитель : Nucleus
Композитор : Karl Jenkins
Издатель : Vertigo
Жанр : Rock
Дата записи : 1970
Библиотека кодирования : LAME3.99r
Примечание : Òîëüêî äëÿ îçíàêîìëåíèÿ
Аудио
Формат : MPEG Audio
Версия формата : Version 1
Профиль формата : Layer 3
Режим : Joint stereo
Продолжительность : 7 м. 21 с.
Вид битрейта : Постоянный
Битрейт : 320 Кбит/сек
Каналы : 2 канала
Частота : 44,1 КГц
Метод сжатия : С потерями
Размер потока : 16,8 Мбайт (100%)
Библиотека кодирования : LAME3.99r
Настройки программы : -m j -V 4 -q 3 -lowpass 20.5
Общее
Полное имя : D:\MEDIA\Audio\Jazz Fusion\02-sun_child.mp3
Формат : MPEG Audio
Размер файла : 12,0 Мбайт
Продолжительность : 5 м. 14 с.
Режим общего битрейта : Постоянный
Общий поток : 320 Кбит/сек
Альбом : We'll Talk About It Later
Альбом/Исполнитель : Nucleus
Трек : Sun Child
Трек/Положение : 2
Исполнитель : Nucleus
Композитор : Clyne Clyne/John Marshall
Издатель : Vertigo
Жанр : Rock
Дата записи : 1970
Библиотека кодирования : LAME3.99r
Примечание : Òîëüêî äëÿ îçíàêîìëåíèÿ
Аудио
Формат : MPEG Audio
Версия формата : Version 1
Профиль формата : Layer 3
Режим : Joint stereo
Продолжительность : 5 м. 14 с.
Вид битрейта : Постоянный
Битрейт : 320 Кбит/сек
Каналы : 2 канала
Частота : 44,1 КГц
Метод сжатия : С потерями
Размер потока : 12,0 Мбайт (100%)
Библиотека кодирования : LAME3.99r
Настройки программы : -m j -V 4 -q 3 -lowpass 20.5
Общее
Полное имя : D:\MEDIA\Audio\Jazz Fusion\03-well_talk_about_it_later.mp3
Формат : MPEG Audio
Размер файла : 14,3 Мбайт
Продолжительность : 6 м. 14 с.
Режим общего битрейта : Постоянный
Общий поток : 320 Кбит/сек
Альбом : We'll Talk About It Later
Трек : We'll Talk About It Later
Трек/Положение : 4
Исполнитель : Nucleus
Дата записи : 1970
Библиотека кодирования : LAME3.99r
Правообладатель : Make Love Not War
Примечание : Òîëüêî äëÿ îçíàêîìëåíèÿ
Аудио
Формат : MPEG Audio
Версия формата : Version 1
Профиль формата : Layer 3
Режим : Joint stereo
Продолжительность : 6 м. 14 с.
Вид битрейта : Постоянный
Битрейт : 320 Кбит/сек
Каналы : 2 канала
Частота : 44,1 КГц
Метод сжатия : С потерями
Размер потока : 14,3 Мбайт (100%)
Библиотека кодирования : LAME3.99r
Настройки программы : -m j -V 4 -q 3 -lowpass 20.5
Общее
Полное имя : D:\MEDIA\Audio\Jazz Fusion\04-ballad_of_joe_pimp.mp3
Формат : MPEG Audio
Размер файла : 8,57 Мбайт
Продолжительность : 3 м. 44 с.
Режим общего битрейта : Постоянный
Общий поток : 320 Кбит/сек
Альбом : We'll Talk About It Later
Трек : Ballad Of Joe Pimp
Трек/Положение : 6
Исполнитель : Nucleus
Дата записи : 1970
Библиотека кодирования : LAME3.99r
Правообладатель : Make Love Not War
Примечание : Òîëüêî äëÿ îçíàêîìëåíèÿ
Аудио
Формат : MPEG Audio
Версия формата : Version 1
Профиль формата : Layer 3
Режим : Joint stereo
Продолжительность : 3 м. 44 с.
Вид битрейта : Постоянный
Битрейт : 320 Кбит/сек
Каналы : 2 канала
Частота : 44,1 КГц
Метод сжатия : С потерями
Размер потока : 8,56 Мбайт (100%)
Библиотека кодирования : LAME3.99r
Настройки программы : -m j -V 4 -q 3 -lowpass 20.5
Общее
Полное имя : D:\MEDIA\Audio\Jazz Fusion\05-easter_1916.mp3
Формат : MPEG Audio
Размер файла : 20,1 Мбайт
Продолжительность : 8 м. 47 с.
Режим общего битрейта : Постоянный
Общий поток : 320 Кбит/сек
Альбом : We'll Talk About It Later
Трек : Easter 1916
Трек/Положение : 7
Исполнитель : Nucleus
Дата записи : 1970
Библиотека кодирования : LAME3.99r
Правообладатель : Make Love Not War
Примечание : Òîëüêî äëÿ îçíàêîìëåíèÿ
Аудио
Формат : MPEG Audio
Версия формата : Version 1
Профиль формата : Layer 3
Режим : Joint stereo
Продолжительность : 8 м. 48 с.
Вид битрейта : Постоянный
Битрейт : 320 Кбит/сек
Каналы : 2 канала
Частота : 44,1 КГц
Метод сжатия : С потерями
Размер потока : 20,1 Мбайт (100%)
Библиотека кодирования : LAME3.99r
Настройки программы : -m j -V 4 -q 3 -lowpass 20.5
Общее
Полное имя : D:\MEDIA\Audio\Jazz Fusion\06-your_city_is_falling.mp3
Формат : MPEG Audio
Размер файла : 11,7 Мбайт
Продолжительность : 5 м. 7 с.
Режим общего битрейта : Постоянный
Общий поток : 320 Кбит/сек
Альбом : If 2
Трек : Your City Is Falling
Трек/Положение : 1
Исполнитель : If
Жанр :
Дата записи : 1970
Правообладатель : Make Love Not War
Примечание : Òîëüêî äëÿ îçíàêîìëåíèÿ
Аудио
Формат : MPEG Audio
Версия формата : Version 1
Профиль формата : Layer 3
Режим : Joint stereo
Продолжительность : 5 м. 7 с.
Вид битрейта : Постоянный
Битрейт : 320 Кбит/сек
Каналы : 2 канала
Частота : 44,1 КГц
Метод сжатия : С потерями
Размер потока : 11,7 Мбайт (100%)
Общее
Полное имя : D:\MEDIA\Audio\Jazz Fusion\07-i_couldnt_write_and_tell_you.mp3
Формат : MPEG Audio
Размер файла : 19,3 Мбайт
Продолжительность : 8 м. 24 с.
Режим общего битрейта : Постоянный
Общий поток : 320 Кбит/сек
Альбом : If 2
Альбом/Исполнитель : If
Трек : I Couldn't Write And Tell You
Трек/Положение : 4
Исполнитель : If
Композитор : Dave Quincy
Издатель : Repertoire
Жанр : Rock
Дата записи : 1970
Примечание : Òîëüêî äëÿ îçíàêîìëåíèÿ
Аудио
Формат : MPEG Audio
Версия формата : Version 1
Профиль формата : Layer 3
Режим : Joint stereo
Продолжительность : 8 м. 25 с.
Вид битрейта : Постоянный
Битрейт : 320 Кбит/сек
Каналы : 2 канала
Частота : 44,1 КГц
Метод сжатия : С потерями
Размер потока : 19,3 Мбайт (100%)
Общее
Полное имя : D:\MEDIA\Audio\Jazz Fusion\08-a_song_for_elsa_three_days_before_her_25th_bir.mp3
Формат : MPEG Audio
Размер файла : 13,2 Мбайт
Продолжительность : 5 м. 46 с.
Режим общего битрейта : Постоянный
Общий поток : 320 Кбит/сек
Альбом : If 2
Трек : A Song For Elsa, Three Days Before Her 25th Birthday
Трек/Положение : 6
Исполнитель : If
Жанр :
Дата записи : 1970
Правообладатель : Make Love Not War
Примечание : Òîëüêî äëÿ îçíàêîìëåíèÿ
Аудио
Формат : MPEG Audio
Версия формата : Version 1
Профиль формата : Layer 3
Режим : Joint stereo
Продолжительность : 5 м. 47 с.
Вид битрейта : Постоянный
Битрейт : 320 Кбит/сек
Каналы : 2 канала
Частота : 44,1 КГц
Метод сжатия : С потерями
Размер потока : 13,2 Мбайт (100%)
Общее
Полное имя : D:\MEDIA\Audio\Jazz Fusion\09-full_moon_boogie.mp3
Формат : MPEG Audio
Размер файла : 9,53 Мбайт
Продолжительность : 4 м. 9 с.
Режим общего битрейта : Постоянный
Общий поток : 320 Кбит/сек
Альбом : Like Children
Трек : Full Moon Boogie
Трек/Положение : 8
Исполнитель : Jerry Goodman & Jan Hammer
Жанр :
Дата записи : 1974
Библиотека кодирования : LAME3.94 (beta)
Правообладатель : Make Love Not War
Примечание : Òîëüêî äëÿ îçíàêîìëåíèÿ
Аудио
Формат : MPEG Audio
Версия формата : Version 1
Профиль формата : Layer 3
Продолжительность : 4 м. 9 с.
Вид битрейта : Постоянный
Битрейт : 320 Кбит/сек
Каналы : 2 канала
Частота : 44,1 КГц
Метод сжатия : С потерями
Размер потока : 9,52 Мбайт (100%)
Библиотека кодирования : LAME3.94 (beta)
Общее
Полное имя : D:\MEDIA\Audio\Jazz Fusion\10-giving_in_gently_i_wonder.mp3
Формат : MPEG Audio
Размер файла : 11,0 Мбайт
Продолжительность : 4 м. 48 с.
Режим общего битрейта : Постоянный
Общий поток : 320 Кбит/сек
Альбом : Like Children
Трек : Giving In Gently I Wonder
Трек/Положение : 9
Исполнитель : Jerry Goodman & Jan Hammer
Жанр :
Дата записи : 1974
Библиотека кодирования : LAME3.94 (beta)
Правообладатель : Make Love Not War
Примечание : Òîëüêî äëÿ îçíàêîìëåíèÿ
Аудио
Формат : MPEG Audio
Версия формата : Version 1
Профиль формата : Layer 3
Продолжительность : 4 м. 48 с.
Вид битрейта : Постоянный
Битрейт : 320 Кбит/сек
Каналы : 2 канала
Частота : 44,1 КГц
Метод сжатия : С потерями
Размер потока : 11,0 Мбайт (100%)
Библиотека кодирования : LAME3.94 (beta)
Общее
Полное имя : D:\MEDIA\Audio\Jazz Fusion\100-oudu_kanjaira.mp3
Формат : MPEG Audio
Размер файла : 12,3 Мбайт
Продолжительность : 5 м. 23 с.
Режим общего битрейта : Постоянный
Общий поток : 320 Кбит/сек
Альбом : World Gone Strange
Альбом/Исполнитель : Andy Summers
Трек : Oudu Kanjaira
Трек/Положение : 09
Исполнитель :
Композитор : Andy Summers
Издатель : Private Music
Жанр : Fusion
Дата записи : 1991
Примечание :
Аудио
Формат : MPEG Audio
Версия формата : Version 1
Профиль формата : Layer 3
Режим : Joint stereo
Продолжительность : 5 м. 23 с.
Вид битрейта : Постоянный
Битрейт : 320 Кбит/сек
Каналы : 2 канала
Частота : 44,1 КГц
Метод сжатия : С потерями
Размер потока : 12,3 Мбайт (100%)
Общее
Полное имя : D:\MEDIA\Audio\Jazz Fusion\101-brujo.mp3
Формат : MPEG Audio
Размер файла : 23,4 Мбайт
Продолжительность : 10 м.
Режим общего битрейта : Постоянный
Общий поток : 320 Кбит/сек
Альбом : National Health
Трек : Brujo
Трек/Положение : 2
Исполнитель : National Health
Дата записи : 1978
Библиотека кодирования : LAME3.98.2
Правообладатель : Make Love Not War
Примечание : Òîëüêî äëÿ îçíàêîìëåíèÿ
Аудио
Формат : MPEG Audio
Версия формата : Version 1
Профиль формата : Layer 3
Продолжительность : 10 м.
Вид битрейта : Постоянный
Битрейт : 320 Кбит/сек
Каналы : 2 канала
Частота : 44,1 КГц
Метод сжатия : С потерями
Размер потока : 23,4 Мбайт (100%)
Библиотека кодирования : LAME3.98.2
Общее
Полное имя : D:\MEDIA\Audio\Jazz Fusion\102-spanish_key.mp3
Формат : MPEG Audio
Размер файла : 40,2 Мбайт
Продолжительность : 17 м.
Режим общего битрейта : Постоянный
Общий поток : 320 Кбит/сек
Альбом : Bitches Brew 2CD
Трек : Spanish Key
Трек/Положение : 3
Исполнитель : Miles Davis
Жанр :
Дата записи : 1969
Библиотека кодирования : LAME3.96.1
Правообладатель : Make Love Not War
Примечание : Òîëüêî äëÿ îçíàêîìëåíèÿ
TRACKNUMBER : 3
Аудио
Формат : MPEG Audio
Версия формата : Version 1
Профиль формата : Layer 3
Продолжительность : 17 м.
Вид битрейта : Постоянный
Битрейт : 320 Кбит/сек
Каналы : 2 канала
Частота : 44,1 КГц
Метод сжатия : С потерями
Размер потока : 40,2 Мбайт (100%)
Библиотека кодирования : LAME3.96.1
Общее
Полное имя : D:\MEDIA\Audio\Jazz Fusion\103-Chad Wackerman - Forty Reasons.mp3
Формат : MPEG Audio
Размер файла : 9,55 Мбайт
Продолжительность : 4 м. 10 с.
Режим общего битрейта : Переменный
Общий поток : 320 Кбит/сек
Альбом : Forty Reasons
Трек : You Came Along
Трек/Положение : 02
Исполнитель : Chad Wackerman
Жанр : fusion/jazz
Дата записи : 2000
Библиотека кодирования : LAME3.98
Аудио
Формат : MPEG Audio
Версия формата : Version 1
Профиль формата : Layer 3
Режим : Joint stereo
Продолжительность : 4 м. 10 с.
Вид битрейта : Переменный
Битрейт : 320 Кбит/сек
Каналы : 2 канала
Частота : 44,1 КГц
Метод сжатия : С потерями
Размер потока : 9,54 Мбайт (100%)
Библиотека кодирования : LAME3.98
Настройки программы : -m j -V 4 -q 3 -lowpass 20.5 --abr
Общее
Полное имя : D:\MEDIA\Audio\Jazz Fusion\104-Chad Wackerman - Forty Reasons.mp3
Формат : MPEG Audio
Размер файла : 3,54 Мбайт
Продолжительность : 1 м. 32 с.
Режим общего битрейта : Переменный
Общий поток : 320 Кбит/сек
Альбом : Forty Reasons
Трек : Fearless
Трек/Положение : 04
Исполнитель : Chad Wackerman
Жанр : fusion/jazz
Дата записи : 2000
Библиотека кодирования : LAME3.98
Аудио
Формат : MPEG Audio
Версия формата : Version 1
Профиль формата : Layer 3
Режим : Joint stereo
Продолжительность : 1 м. 32 с.
Вид битрейта : Переменный
Битрейт : 320 Кбит/сек
Каналы : 2 канала
Частота : 44,1 КГц
Метод сжатия : С потерями
Размер потока : 3,53 Мбайт (100%)
Библиотека кодирования : LAME3.98
Настройки программы : -m j -V 4 -q 3 -lowpass 20.5 --abr
Общее
Полное имя : D:\MEDIA\Audio\Jazz Fusion\105-Chad Wackerman - Forty Reasons.mp3
Формат : MPEG Audio
Размер файла : 9,24 Мбайт
Продолжительность : 4 м. 2 с.
Режим общего битрейта : Переменный
Общий поток : 320 Кбит/сек
Альбом : Forty Reasons
Трек : Hidden Places
Трек/Положение : 09
Исполнитель : Chad Wackerman
Жанр : fusion/jazz
Дата записи : 2000
Библиотека кодирования : LAME3.98
Аудио
Формат : MPEG Audio
Версия формата : Version 1
Профиль формата : Layer 3
Режим : Joint stereo
Продолжительность : 4 м. 2 с.
Вид битрейта : Переменный
Битрейт : 320 Кбит/сек
Каналы : 2 канала
Частота : 44,1 КГц
Метод сжатия : С потерями
Размер потока : 9,23 Мбайт (100%)
Библиотека кодирования : LAME3.98
Настройки программы : -m j -V 4 -q 3 -lowpass 20.5 --abr
Общее
Полное имя : D:\MEDIA\Audio\Jazz Fusion\106-umbrellas.mp3
Формат : MPEG Audio
Размер файла : 7,95 Мбайт
Продолжительность : 3 м. 28 с.
Режим общего битрейта : Постоянный
Общий поток : 320 Кбит/сек
Альбом : Weather Report
Альбом/Исполнитель : Weather Report
Трек : Umbrellas
Трек/Положение : 2
Исполнитель : Weather Report
Композитор : Joe Zawinul/Miroslav Vitous/Wayne Shorter
Издатель : Sbme Special Mkts.
Жанр : Jazz
Дата записи : 1971
Библиотека кодирования : LAME3.98
Примечание : Òîëüêî äëÿ îçíàêîìëåíèÿ
Аудио
Формат : MPEG Audio
Версия формата : Version 1
Профиль формата : Layer 3
Режим : Joint stereo
Продолжительность : 3 м. 28 с.
Вид битрейта : Постоянный
Битрейт : 320 Кбит/сек
Каналы : 2 канала
Частота : 44,1 КГц
Метод сжатия : С потерями
Размер потока : 7,94 Мбайт (100%)
Библиотека кодирования : LAME3.98
Настройки программы : -m j -V 4 -q 3 -lowpass 20.5
Общее
Полное имя : D:\MEDIA\Audio\Jazz Fusion\107-seventh_arrow.mp3
Формат : MPEG Audio
Размер файла : 12,4 Мбайт
Продолжительность : 5 м. 24 с.
Режим общего битрейта : Постоянный
Общий поток : 320 Кбит/сек
Альбом : Weather Report
Альбом/Исполнитель : Weather Report
Трек : Seventh Arrow
Трек/Положение : 3
Исполнитель : Weather Report
Композитор : Miroslav Vitous
Издатель : Sbme Special Mkts.
Жанр : Jazz
Дата записи : 1971
Библиотека кодирования : LAME3.98
Примечание : Òîëüêî äëÿ îçíàêîìëåíèÿ
Аудио
Формат : MPEG Audio
Версия формата : Version 1
Профиль формата : Layer 3
Режим : Joint stereo
Расширение режима : MS Stereo
Продолжительность : 5 м. 24 с.
Вид битрейта : Постоянный
Битрейт : 320 Кбит/сек
Каналы : 2 канала
Частота : 44,1 КГц
Метод сжатия : С потерями
Размер потока : 12,4 Мбайт (100%)
Библиотека кодирования : LAME3.98
Настройки программы : -m j -V 4 -q 3 -lowpass 20.5
Общее
Полное имя : D:\MEDIA\Audio\Jazz Fusion\108-The Don Ellis Orchestra - Electric Bath.mp3
Формат : MPEG Audio
Размер файла : 12,7 Мбайт
Продолжительность : 5 м. 32 с.
Режим общего битрейта : Постоянный
Общий поток : 320 Кбит/сек
Альбом : Electric Bath
Трек : Alone
Трек/Положение : 02
Исполнитель : The Don Ellis Orchestra
Жанр : Jazz
Дата выпуска : 1968
Библиотека кодирования : LAME3.97
Аудио
Формат : MPEG Audio
Версия формата : Version 1
Профиль формата : Layer 3
Режим : Joint stereo
Продолжительность : 5 м. 32 с.
Вид битрейта : Постоянный
Битрейт : 320 Кбит/сек
Каналы : 2 канала
Частота : 44,1 КГц
Метод сжатия : С потерями
Размер потока : 12,7 Мбайт (100%)
Библиотека кодирования : LAME3.97
Общее
Полное имя : D:\MEDIA\Audio\Jazz Fusion\109-The Don Ellis Orchestra - Turkish Bath.mp3
Формат : MPEG Audio
Размер файла : 24,1 Мбайт
Продолжительность : 10 м.
Режим общего битрейта : Постоянный
Общий поток : 320 Кбит/сек
Альбом : Electric Bath
Трек : Turkish Bath
Трек/Положение : 03
Исполнитель : The Don Ellis Orchestra
Жанр : Jazz
Дата записи : 1968
Библиотека кодирования : LAME3.93
Примечание :
Аудио
Формат : MPEG Audio
Версия формата : Version 1
Профиль формата : Layer 3
Режим : Joint stereo
Расширение режима : MS Stereo
Продолжительность : 10 м.
Вид битрейта : Постоянный
Битрейт : 320 Кбит/сек
Каналы : 2 канала
Частота : 44,1 КГц
Метод сжатия : С потерями
Размер потока : 24,1 Мбайт (100%)
Библиотека кодирования : LAME3.93
Настройки программы : -m j -V 4 -q 0
Общее
Полное имя : D:\MEDIA\Audio\Jazz Fusion\11-the_funky_waltz.mp3
Формат : MPEG Audio
Размер файла : 12,8 Мбайт
Продолжительность : 5 м. 11 с.
Режим общего битрейта : Постоянный
Общий поток : 320 Кбит/сек
Альбом : Introducing The Eleventh House
Альбом/Исполнитель : The Eleventh House
Трек : The Funky Waltz
Трек/Положение : 2
Исполнитель : Larry Coryell
Композитор : Alphonse Mouzon
Издатель : Ace
Жанр : Jazz
Дата записи : 1974
Библиотека кодирования : LAME3.93
Примечание : Òîëüêî äëÿ îçíàêîìëåíèÿ
Аудио
Формат : MPEG Audio
Версия формата : Version 1
Профиль формата : Layer 3
Продолжительность : 5 м. 12 с.
Вид битрейта : Постоянный
Битрейт : 320 Кбит/сек
Каналы : 2 канала
Частота : 44,1 КГц
Метод сжатия : С потерями
Размер потока : 11,9 Мбайт (93%)
Библиотека кодирования : LAME3.93
Общее
Полное имя : D:\MEDIA\Audio\Jazz Fusion\110-Scott Kinsey - Quartet.mp3
Формат : MPEG Audio
Размер файла : 12,8 Мбайт
Продолжительность : 5 м. 36 с.
Режим общего битрейта : Постоянный
Общий поток : 320 Кбит/сек
Жанр : Other
Дата записи : 2009
Аудио
Формат : MPEG Audio
Версия формата : Version 1
Профиль формата : Layer 3
Продолжительность : 5 м. 36 с.
Вид битрейта : Постоянный
Битрейт : 320 Кбит/сек
Каналы : 2 канала
Частота : 44,1 КГц
Метод сжатия : С потерями
Размер потока : 12,8 Мбайт (100%)
Общее
Полное имя : D:\MEDIA\Audio\Jazz Fusion\111-Scott Kinsey - Sometimes I....mp3
Формат : MPEG Audio
Размер файла : 11,6 Мбайт
Продолжительность : 5 м. 2 с.
Режим общего битрейта : Постоянный
Общий поток : 320 Кбит/сек
Альбом : Kinesthetics
Альбом/Исполнитель : Scott Kinsey
Трек : Sometimes I...
Трек/Положение : 03
Исполнитель : Scott Kinsey
Жанр : Fusion
Дата записи : 2006
Библиотека кодирования : LAME
Аудио
Формат : MPEG Audio
Версия формата : Version 1
Профиль формата : Layer 3
Режим : Joint stereo
Продолжительность : 5 м. 3 с.
Вид битрейта : Постоянный
Битрейт : 320 Кбит/сек
Каналы : 2 канала
Частота : 44,1 КГц
Метод сжатия : С потерями
Размер потока : 11,6 Мбайт (100%)
Библиотека кодирования : LAME
Общее
Полное имя : D:\MEDIA\Audio\Jazz Fusion\112-nimbus.mp3
Формат : MPEG Audio
Размер файла : 14,0 Мбайт
Продолжительность : 6 м. 6 с.
Режим общего битрейта : Постоянный
Общий поток : 320 Кбит/сек
Альбом : Metro
Трек : Nimbus
Трек/Положение : 3
Исполнитель : Metro
Дата записи : 1994
Библиотека кодирования : LAME3.98r
Правообладатель : Make Love Not War
Примечание : Òîëüêî äëÿ îçíàêîìëåíèÿ
Аудио
Формат : MPEG Audio
Версия формата : Version 1
Профиль формата : Layer 3
Режим : Joint stereo
Продолжительность : 6 м. 6 с.
Вид битрейта : Постоянный
Битрейт : 320 Кбит/сек
Каналы : 2 канала
Частота : 44,1 КГц
Метод сжатия : С потерями
Размер потока : 14,0 Мбайт (100%)
Библиотека кодирования : LAME3.98r
Настройки программы : -m j -V 4 -q 3 -lowpass 20.5
Общее
Полное имя : D:\MEDIA\Audio\Jazz Fusion\113-slink.mp3
Формат : MPEG Audio
Размер файла : 13,6 Мбайт
Продолжительность : 5 м. 57 с.
Режим общего битрейта : Постоянный
Общий поток : 320 Кбит/сек
Альбом : Vinnie Colaiuta
Трек : Slink
Трек/Положение : 5
Исполнитель : Vinnie Colaiuta
Дата записи : 1994
Правообладатель : Make Love Not War
Примечание : Òîëüêî äëÿ îçíàêîìëåíèÿ
Аудио
Формат : MPEG Audio
Версия формата : Version 1
Профиль формата : Layer 3
Режим : Joint stereo
Продолжительность : 5 м. 57 с.
Вид битрейта : Постоянный
Битрейт : 320 Кбит/сек
Каналы : 2 канала
Частота : 44,1 КГц
Метод сжатия : С потерями
Размер потока : 13,6 Мбайт (100%)
Общее
Полное имя : D:\MEDIA\Audio\Jazz Fusion\114-bruce_lee.mp3
Формат : MPEG Audio
Размер файла : 13,8 Мбайт
Продолжительность : 6 м. 0 с.
Режим общего битрейта : Постоянный
Общий поток : 320 Кбит/сек
Альбом : Vinnie Colaiuta
Трек : Bruce Lee
Трек/Положение : 8
Исполнитель : Vinnie Colaiuta
Дата записи : 1994
Правообладатель : Make Love Not War
Примечание : Òîëüêî äëÿ îçíàêîìëåíèÿ
Аудио
Формат : MPEG Audio
Версия формата : Version 1
Профиль формата : Layer 3
Режим : Joint stereo
Продолжительность : 6 м. 0 с.
Вид битрейта : Постоянный
Битрейт : 320 Кбит/сек
Каналы : 2 канала
Частота : 44,1 КГц
Метод сжатия : С потерями
Размер потока : 13,8 Мбайт (100%)
Общее
Полное имя : D:\MEDIA\Audio\Jazz Fusion\115-jazz_lament.mp3
Формат : MPEG Audio
Размер файла : 10,8 Мбайт
Продолжительность : 4 м. 42 с.
Режим общего битрейта : Постоянный
Общий поток : 320 Кбит/сек
Альбом : The Forbidden Zone
Трек : Jazz Lament
Трек/Положение : 2
Исполнитель : Tom Coster
Жанр :
Дата записи : 1996
Правообладатель : Make Love Not War
Примечание : Òîëüêî äëÿ îçíàêîìëåíèÿ
Аудио
Формат : MPEG Audio
Версия формата : Version 1
Профиль формата : Layer 3
Режим : Joint stereo
Продолжительность : 4 м. 43 с.
Вид битрейта : Постоянный
Битрейт : 320 Кбит/сек
Каналы : 2 канала
Частота : 44,1 КГц
Метод сжатия : С потерями
Размер потока : 10,8 Мбайт (100%)
Общее
Полное имя : D:\MEDIA\Audio\Jazz Fusion\116-shall_we.mp3
Формат : MPEG Audio
Размер файла : 11,1 Мбайт
Продолжительность : 4 м. 51 с.
Режим общего битрейта : Постоянный
Общий поток : 320 Кбит/сек
Альбом : The Forbidden Zone
Трек : Shall We
Трек/Положение : 3
Исполнитель : Tom Coster
Жанр :
Дата записи : 1996
Правообладатель : Make Love Not War
Примечание : Òîëüêî äëÿ îçíàêîìëåíèÿ
Аудио
Формат : MPEG Audio
Версия формата : Version 1
Профиль формата : Layer 3
Режим : Joint stereo
Продолжительность : 4 м. 51 с.
Вид битрейта : Постоянный
Битрейт : 320 Кбит/сек
Каналы : 2 канала
Частота : 44,1 КГц
Метод сжатия : С потерями
Размер потока : 11,1 Мбайт (100%)
Общее
Полное имя : D:\MEDIA\Audio\Jazz Fusion\117-blues_for_d_c.mp3
Формат : MPEG Audio
Размер файла : 10,8 Мбайт
Продолжительность : 4 м. 43 с.
Режим общего битрейта : Постоянный
Общий поток : 320 Кбит/сек
Альбом : The Forbidden Zone
Трек : Blues For D C
Трек/Положение : 10
Исполнитель : Tom Coster
Жанр :
Дата записи : 1996
Правообладатель : Make Love Not War
Примечание : Òîëüêî äëÿ îçíàêîìëåíèÿ
Аудио
Формат : MPEG Audio
Версия формата : Version 1
Профиль формата : Layer 3
Режим : Joint stereo
Продолжительность : 4 м. 43 с.
Вид битрейта : Постоянный
Битрейт : 320 Кбит/сек
Каналы : 2 канала
Частота : 44,1 КГц
Метод сжатия : С потерями
Размер потока : 10,8 Мбайт (100%)
Общее
Полное имя : D:\MEDIA\Audio\Jazz Fusion\118-saturn_5.mp3
Формат : MPEG Audio
Размер файла : 17,0 Мбайт
Продолжительность : 7 м. 23 с.
Режим общего битрейта : Постоянный
Общий поток : 320 Кбит/сек
Альбом : Rocket Science
Альбом/Исполнитель : Tribal Tech
Трек : Saturn 5
Трек/Положение : 1
Исполнитель : Scott Henderson & Tribal Tech
Композитор : Tribal Tech
Издатель : Tone Center
Жанр : Jazz
Дата записи : 2000
Примечание : Òîëüêî äëÿ îçíàêîìëåíèÿ
Аудио
Формат : MPEG Audio
Версия формата : Version 1
Профиль формата : Layer 3
Режим : Joint stereo
Продолжительность : 7 м. 24 с.
Вид битрейта : Постоянный
Битрейт : 320 Кбит/сек
Каналы : 2 канала
Частота : 44,1 КГц
Метод сжатия : С потерями
Размер потока : 16,9 Мбайт (100%)
Общее
Полное имя : D:\MEDIA\Audio\Jazz Fusion\119-stella_by_infra-red_high_particle_neutron_beam.mp3
Формат : MPEG Audio
Размер файла : 14,7 Мбайт
Продолжительность : 6 м. 25 с.
Режим общего битрейта : Постоянный
Общий поток : 320 Кбит/сек
Альбом : Reality Check
Трек : Stella By Infra-Red High Particle Neutron Beam
Трек/Положение : 2
Исполнитель : Scott Henderson & Tribal Tech
Дата записи : 1994
Правообладатель : Make Love Not War
Примечание : Òîëüêî äëÿ îçíàêîìëåíèÿ
Аудио
Формат : MPEG Audio
Версия формата : Version 1
Профиль формата : Layer 3
Режим : Joint stereo
Продолжительность : 6 м. 25 с.
Вид битрейта : Постоянный
Битрейт : 320 Кбит/сек
Каналы : 2 канала
Частота : 44,1 КГц
Метод сжатия : С потерями
Размер потока : 14,7 Мбайт (100%)
Общее
Полно
Яндекс.Метрика
Рейтинг@Mail.ru