[ Сегодня на трекере фрилич! Идет свободное скачивание без начисления Download ]

Yello - Eccentrix Remixes (1999) [FLAC|Lossless]<Electronica, Synthpop>

 

Создавать темы 17-Дек-2014 11:57

-Yello - Eccentrix Remixes (1999)- Год: 1999
Жанр: Electronica, Synthpop
Продолжительность: 01:04:28
Label: Mercury
Catalog #: 538 584-2
Аудиокодек: FLAC
Битрейт: Lossless
Треклист:
01. The Race (Brake Light Mix) (6:51)
02. How How (Papa-Who-Ma-Mix) (5:52)
03. More (Rockabilly Mix) (6:12)
04. Do It (Marky P. & Teri B. Dub) (7:48)
05. Topaz (Insect Mix) (3:39)
06. How How (In Silence Mix) (4:36)
07. On Track (Doug Laurent's First Journey Mix) (7:33)
08. Vicious Games (B. Blank - O. Wollschlager Mix) (6:33)
09. Rubberbandman (Rubber Mix) (6:07)
10. She's Got A Gun (Live At The Palladium NY) (4:09)
11. To The Sea (TSWL Mix) (5:09)

Отчёт ЕАС&#58;

Отчёт EAC об извлечении, выполненном 13. июля 2006, 12:04 для диска:
Yello / Eccentrix Remixes
Дисковод: PIONEER DVD-RW  DVR-105   Adapter: 1  ID: 0
Режим чтения: Достоверный (C2: нет, Точный поток: да, Отключение кэша: да)
Коррекция смещения при чтении: 48
Способность читать области Lead-in и Lead-out : Нет
Выходной формат: Внутренние WAV-операции
                     44.100 Гц; 16 бит; стерео
Другие параметры:
    Заполнение пропущенных сэмплов тишиной : Да
    Удаление блоков с тишиной в начале и конце : Нет
    Встроенный Win32-интерфейс для Win NT/2000
Характеристики диапазона извлечения и сообщения об ошибках
Выбранный диапазон
     Имя файла C:\Yello\Eccentrix remixes\Yello - Eccentrix Remixes.wav
     Пиковый уровень 100.0 %
     Качество диапазона 100.0 %
     CRC 89BEABEB
     Копирование... OK
Ошибок не произошло
Конец отчёта

Отчёт auCDtect Task manager&#58;

-----------------------
DON'T MODIFY THIS FILE
-----------------------
PERFORMER: auCDtect Task Manager, ver. 1.6.0 RC1 build 1.6.0.1
Copyright (c) 2008-2010 y-soft. All rights reserved
http://y-soft.org
ANALYZER: auCDtect: CD records authenticity detector, version 0.8.2
Copyright (c) 2004 Oleg Berngardt. All rights reserved.
Copyright (c) 2004 Alexander Djourik. All rights reserved.
FILE: Yello - Eccentrix Remixes.flac
  Size: 436789733 Hash: BC0AB5905D8B180B1DA8332EDFE604A4 Accuracy: -m0
  Conclusion: CDDA 100%
  Signature: EF7E1766BA448F9A49533D35C5160CE7BF203E0A

Содержание индексной карты (.CUE&#41;

REM GENRE Techno
REM DATE 1999
REM DISCID 8C0F1C0B
REM COMMENT "ExactAudioCopy v0.95b4"
PERFORMER "Yello"
TITLE "Eccentrix Remixes"
FILE "Yello - Eccentrix Remixes.wav" WAVE
  TRACK 01 AUDIO
    TITLE "The Race (Brake Light Mix)"
    PERFORMER "Yello"
    INDEX 01 00:00:00
  TRACK 02 AUDIO
    TITLE "How How (Papa-Who-Ma-Mix)"
    PERFORMER "Yello"
    INDEX 01 06:50:45
  TRACK 03 AUDIO
    TITLE "More (Rockabilly Mix)"
    PERFORMER "Yello"
    INDEX 01 12:42:44
  TRACK 04 AUDIO
    TITLE "Do It (Marky P. & Teri B. Dub)"
    PERFORMER "Yello"
    INDEX 01 18:54:51
  TRACK 05 AUDIO
    TITLE "Topaz (Insect Mix)"
    PERFORMER "Yello"
    INDEX 01 26:42:44
  TRACK 06 AUDIO
    TITLE "How How (In Silence Mix)"
    PERFORMER "Yello"
    INDEX 01 30:21:69
  TRACK 07 AUDIO
    TITLE "On Track (Doug Laurent's First Journey Mix)"
    PERFORMER "Yello"
    INDEX 01 34:57:36
  TRACK 08 AUDIO
    TITLE "Vicious Games (B. Blank - O. Wollschlager Mix)"
    PERFORMER "Yello"
    INDEX 01 42:30:27
  TRACK 09 AUDIO
    TITLE "Rubberbandman (Rubber Mix)"
    PERFORMER "Yello"
    INDEX 01 49:03:19
  TRACK 10 AUDIO
    TITLE "She's Got A Gun (Live At The Palladium NY)"
    PERFORMER "Yello"
    INDEX 01 55:10:48
  TRACK 11 AUDIO
    TITLE "To The Sea (TSWL Mix)"
    PERFORMER "Yello"
    INDEX 01 59:19:13
-
Яндекс.Метрика
Рейтинг@Mail.ru