Savage - Goodbye (1990) [APE|Lossless]<Electronic>

 

Создавать темы 17-Дек-2014 11:57

-Savage - Goodbye (1990)- Год: 1990
Жанр: Electronic
Продолжительность: 01:18:36
Кодек: APE
Битрейт: Lossless
Треклист:
01. I Just Died In Your Arms (5:37)
02. Goodbye (6:40)
03. Don't Leave Me (4:42)
04. So Close (3:26)
05. Still I'm Loving You (3:35)
06. Eyes Of The Moon (4:21)
07. Ten Years Ago (3:23)
08. Jane (4:10)
09. I'm Loosing You (3:25)
10. Strange Love (6:08)
11. Something More Than This (4:55)
12. Don't You Wan't Me (6:55)
13. And You Are (3:34)
14. Celebrate (4:17)
15. Love Is Death (6:14)
16. I Just Died In Your Arms (remix) (3:27)
17. Love Is Death (remix) (3:47)

Отчёт ЕАС&#58;

Exact Audio Copy V0.99 prebeta 3 from 28. July 2007
Отчёт EAC об извлечении, выполненном 4. ноября 2007, 17:08
Savage / Goodbye
Дисковод: ASUS    DRW-0804P   Adapter: 1  ID: 1
Режим чтения                 : Достоверность
Использование точного потока : Да
Отключение кэша аудио        : Да
Использование указателей C2  : Нет
Коррекция смещения при чтении                     : 48
Способность читать области Lead-in и Lead-out     : Нет
Заполнение пропущенных сэмплов тишиной            : Да
Удаление блоков с тишиной в начале и конце        : Нет
При вычислениях CRC использовались нулевые сэмплы : Да
Интерфейс                                         : Установленный внешний ASPI-интерфейс
Выходной формат          : Пользовательский кодировщик
Выбранный битрейт        : 1024 kBit/s
Качество                 : Высокий
Добавление ID3-тэга      : Да
Утилита сжатия           : C:\Program Files\Exact Audio Copy\Flac\flac.exe
Дополнительные параметры : -8 -V -T "ARTIST=%a" -T "TITLE=%t" -T "ALBUM=%g" -T "DATE=%y" -T "TRACKNUMBER=%n" -T "GENRE=%m" -T "COMMENT=%e" %s -o %d
TOC извлечённого CD
     Трек |   Старт  | Длительность | Начальный сектор | Конечный сектор
    ---------------------------------------------------------------------
       1  |  0:00.00 |    5:37.30   |           0      |      25304
       2  |  5:37.30 |    6:40.14   |       25305      |      55318
       3  | 12:17.44 |    4:41.52   |       55319      |      76445
       4  | 16:59.21 |    3:25.61   |       76446      |      91881
       5  | 20:25.07 |    3:34.62   |       91882      |     107993
       6  | 23:59.69 |    4:20.58   |      107994      |     127551
       7  | 28:20.52 |    3:22.48   |      127552      |     142749
       8  | 31:43.25 |    4:10.36   |      142750      |     161535
       9  | 35:53.61 |    3:24.73   |      161536      |     176908
      10  | 39:18.59 |    6:08.09   |      176909      |     204517
      11  | 45:26.68 |    4:55.03   |      204518      |     226645
      12  | 50:21.71 |    6:55.12   |      226646      |     257782
      13  | 57:17.08 |    3:34.26   |      257783      |     273858
      14  | 60:51.34 |    4:17.12   |      273859      |     293145
      15  | 65:08.46 |    6:14.13   |      293146      |     321208
      16  | 71:22.59 |    3:26.53   |      321209      |     336711
      17  | 74:49.37 |    3:47.13   |      336712      |     353749
Характеристики диапазона извлечения и сообщения об ошибках
Выбранный диапазон
     Имя файла E:\На раздачу\Savage\Savage - Goodbye.wav
     Пиковый уровень 100.0 %
     Качество диапазона 100.0 %
     CRC копии BCF8F801
     Копирование... OK
Ошибок не произошло
Конец отчёта

Отчёт auCDtect Task manager&#58;

-----------------------
DON'T MODIFY THIS FILE
-----------------------
PERFORMER: auCDtect Task Manager, ver. 1.6.0 RC1 build 1.6.0.1
Copyright (c) 2008-2010 y-soft. All rights reserved
http://y-soft.org
ANALYZER: auCDtect: CD records authenticity detector, version 0.8.2
Copyright (c) 2004 Oleg Berngardt. All rights reserved.
Copyright (c) 2004 Alexander Djourik. All rights reserved.
FILE: Savage - Goodbye.ape
  Size: 525724526 Hash: 9430EDEFF992A2740068293FF8953731 Accuracy: -m0
  Conclusion: CDDA 100%
  Signature: 78CA691520965D0A05B6C175D1EA65CCAF728F19

Содержание индексной карты (.CUE&#41;

REM DISCID DF126C11
REM COMMENT "ExactAudioCopy v0.99pb3"
PERFORMER "Savage"
TITLE "Goodbye"
FILE "Savage - Goodbye.wav" WAVE
  TRACK 01 AUDIO
    TITLE "I Just Died In Your Arms"
    PERFORMER "Savage"
    INDEX 01 00:00:00
  TRACK 02 AUDIO
    TITLE "Goodbye"
    PERFORMER "Savage"
    INDEX 01 05:37:30
  TRACK 03 AUDIO
    TITLE "Don't Leave Me"
    PERFORMER "Savage"
    INDEX 01 12:17:44
  TRACK 04 AUDIO
    TITLE "So Close"
    PERFORMER "Savage"
    INDEX 01 16:59:21
  TRACK 05 AUDIO
    TITLE "Still I'm Loving You"
    PERFORMER "Savage"
    INDEX 01 20:25:07
  TRACK 06 AUDIO
    TITLE "Eyes Of The Moon"
    PERFORMER "Savage"
    INDEX 01 23:59:69
  TRACK 07 AUDIO
    TITLE "Ten Years Ago"
    PERFORMER "Savage"
    INDEX 01 28:20:52
  TRACK 08 AUDIO
    TITLE "Jane"
    PERFORMER "Savage"
    INDEX 01 31:43:25
  TRACK 09 AUDIO
    TITLE "I'm Loosing You"
    PERFORMER "Savage"
    INDEX 01 35:53:61
  TRACK 10 AUDIO
    TITLE "Strange Love"
    PERFORMER "Savage"
    INDEX 01 39:18:59
  TRACK 11 AUDIO
    TITLE "Something More Than This"
    PERFORMER "Savage"
    INDEX 01 45:26:68
  TRACK 12 AUDIO
    TITLE "Don't You Wan't Me"
    PERFORMER "Savage"
    INDEX 01 50:21:71
  TRACK 13 AUDIO
    TITLE "And You Are"
    PERFORMER "Savage"
    INDEX 01 57:17:08
  TRACK 14 AUDIO
    TITLE "Celebrate"
    PERFORMER "Savage"
    INDEX 01 60:51:34
  TRACK 15 AUDIO
    TITLE "Love Is Death"
    PERFORMER "Savage"
    INDEX 01 65:08:46
  TRACK 16 AUDIO
    TITLE "I Just Died In Your Arms  (remix)"
    PERFORMER "Savage"
    INDEX 01 71:22:59
  TRACK 17 AUDIO
    TITLE "Love Is Death (remix)"
    PERFORMER "Savage"
    INDEX 01 74:49:37
-
Яндекс.Метрика
Рейтинг@Mail.ru