SAVAGE - TONIGHT - 1995 (APE)

 

Создавать темы 17-Дек-2014 11:57

-SAVAGE - TONIGHT- Год: 1995
Жанр: POP
Продолжительность: 37:08
Кодек: APE
Битрейт: 1411
Трек лист:
1. Radio
2. Don't Cry Tonight
3. A Love Again
4. Fugitive
5. Tonight
6. Only You
7. Turn Around
8. Don't Cry Tonight (bonus)-

Отчёт EAC

Exact Audio Copy V0.99 prebeta 4 from 23. January 2008
Отчёт EAC об извлечении, выполненном 21. мая 2008, 23:22
Savage / Tonight
Дисковод: _NEC DVD_RW ND-3520AW Adapter: 2 ID: 0
Режим чтения : Достоверность
Использование точного потока : Да
Отключение кэша аудио : Да
Использование указателей C2 : Нет
Комбинированное смещение чтения/записи : 0
Способность читать области Lead-in и Lead-out : Нет
Заполнение пропущенных сэмплов тишиной : Да
Удаление блоков с тишиной в начале и конце : Нет
При вычислениях CRC использовались нулевые сэмплы : Да
Интерфейс : Встроенный Win32-интерфейс для Win NT/2000
Обработка зазоров : Не обнаружено, добавлено к предыдущему треку
Выходной формат : Внутренние WAV-операции
Формат сэмплов : 44.100 Гц; 16 бит; стерео
TOC извлечённого CD
Трек | Старт | Длительность | Начальный сектор | Конечный сектор
---------------------------------------------------------------------
1 | 0:00.00 | 5:06.27 | 0 | 22976
2 | 5:06.27 | 4:08.48 | 22977 | 41624
3 | 9:15.00 | 4:31.30 | 41625 | 61979
4 | 13:46.30 | 5:02.67 | 61980 | 84696
5 | 18:49.22 | 3:35.33 | 84697 | 100854
6 | 22:24.55 | 3:51.55 | 100855 | 118234
7 | 26:16.35 | 3:57.50 | 118235 | 136059
8 | 30:14.10 | 6:54.45 | 136060 | 167154
Трек 1
Имя файла C:\Raid\Savage\Radio.wav
Пиковый уровень 96.0 %
Качество трека 100.0 %
CRC копии AA339E57
Копирование... OK
Трек 2
Имя файла C:\Raid\Savage\Don't Cry Tonight.wav
Пиковый уровень 98.5 %
Качество трека 100.0 %
CRC копии 6A8629DC
Копирование... OK
Трек 3
Имя файла C:\Raid\Savage\A Love Again.wav
Пиковый уровень 96.3 %
Качество трека 100.0 %
CRC копии 012F45E4
Копирование... OK
Трек 4
Имя файла C:\Raid\Savage\Fugitive.wav
Пиковый уровень 98.1 %
Качество трека 100.0 %
CRC копии 88DB840E
Копирование... OK
Трек 5
Имя файла C:\Raid\Savage\Tonight.wav
Пиковый уровень 98.4 %
Качество трека 100.0 %
CRC копии 44AC4A8E
Копирование... OK
Трек 6
Имя файла C:\Raid\Savage\Only You.wav
Пиковый уровень 97.8 %
Качество трека 100.0 %
CRC копии 79647B42
Копирование... OK
Трек 7
Имя файла C:\Raid\Savage\Turn Around.wav
Пиковый уровень 98.2 %
Качество трека 100.0 %
CRC копии 061FD747
Копирование... OK
Трек 8
Имя файла C:\Raid\Savage\Don't Cry Tonight (bonus).wav
Пиковый уровень 99.3 %
Качество трека 99.9 %
CRC копии BAB297B6
Копирование... OK
Ошибок не произошло
Конец отчёта
-
Яндекс.Метрика
Рейтинг@Mail.ru