Eurythmics - The Greatest Hits (1991) [FLAC|Lossless] <Pop Rock, New Wave, Synthpop>

 

Создавать темы 17-Дек-2014 11:57

-Eurythmics - The Greatest Hits (1991)- Год: 1991
Жанр: Pop Rock, New Wave, Synthpop
Продолжительность: 01:01:32
Издатель (лейбл): Arista
Номер по каталогу: ARCD-8680
Кодек: FLAC
Битрейт: Lossless
Треклист:
01. Sweet Dreams (Are Made of This) (04:54)
02. When Tomorrow Comes (04:17)
03. Here Comes the Rain Again (05:01)
04. Who's That Girl (03:47)
05. Would I Lie to You (04:25)
06. Sisters Are Doing It for Themselves (04:53)
07. There Must Be an Angel (Playing With My Heart) (04:42)
08. Missionary Man (03:47)
09. Don't Ask Me Why (04:14)
10. I Need A Man (04:20)
11. Love Is a Stranger (03:41)
12. Thorn in My Side (04:13)
13. The King & Queen Of America (04:30)
14. Angel (04:48)

Отчет EAC

EAC extraction logfile from 23. December 2005, 13:16 for CD
Eurythmics / Greatest Hits
Used drive  : SONY    DVD RW DRU-500A   Adapter: 2  ID: 0
Read mode   : Secure with NO C2, accurate stream, disable cache
Read offset correction : 96
Overread into Lead-In and Lead-Out : No
Used output format : Internal WAV Routines
                     44.100 Hz; 16 Bit; Stereo
Other options      :
    Fill up missing offset samples with silence : Yes
    Delete leading and trailing silent blocks : No
    Installed external ASPI interface
Track  1
     Filename C:\Testeac\Eurythmics - Greatest Hits(1991)[flac]\01 - Sweet Dreams (Are Made of This).wav
     Pre-gap length  0:00:02.00
     Peak level 100.0 %
     Track quality 100.0 %
     Test CRC 9C502369
     Copy CRC 9C502369
     Copy OK
Track  2
     Filename C:\Testeac\Eurythmics - Greatest Hits(1991)[flac]\02 - When Tomorrow Comes.wav
     Pre-gap length  0:00:01.70
     Peak level 99.8 %
     Track quality 99.9 %
     Test CRC 8C4B2979
     Copy CRC 8C4B2979
     Copy OK
Track  3
     Filename C:\Testeac\Eurythmics - Greatest Hits(1991)[flac]\03 - Here Comes The Rain Again.wav
     Pre-gap length  0:00:03.66
     Peak level 99.8 %
     Track quality 100.0 %
     Test CRC A968CD8F
     Copy CRC A968CD8F
     Copy OK
Track  4
     Filename C:\Testeac\Eurythmics - Greatest Hits(1991)[flac]\04 - Who's That Girl.wav
     Pre-gap length  0:00:01.73
     Peak level 99.9 %
     Track quality 99.9 %
     Test CRC DE12E501
     Copy CRC DE12E501
     Copy OK
Track  5
     Filename C:\Testeac\Eurythmics - Greatest Hits(1991)[flac]\05 - Would I Lie To You.wav
     Pre-gap length  0:00:03.44
     Peak level 99.9 %
     Track quality 100.0 %
     Test CRC C541929C
     Copy CRC C541929C
     Copy OK
Track  6
     Filename C:\Testeac\Eurythmics - Greatest Hits(1991)[flac]\06 - Sisters Are Doing It For Themselves.wav
     Pre-gap length  0:00:02.96
     Peak level 99.9 %
     Track quality 100.0 %
     Test CRC 8AA7FA7A
     Copy CRC 8AA7FA7A
     Copy OK
Track  7
     Filename C:\Testeac\Eurythmics - Greatest Hits(1991)[flac]\07 - There Must Be An Angel (Playing With My Heart).wav
     Pre-gap length  0:00:02.37
     Peak level 99.8 %
     Track quality 100.0 %
     Test CRC 31B31484
     Copy CRC 31B31484
     Copy OK
Track  8
     Filename C:\Testeac\Eurythmics - Greatest Hits(1991)[flac]\08 - Missionary Man.wav
     Pre-gap length  0:00:02.21
     Peak level 100.0 %
     Track quality 99.9 %
     Test CRC AE8C072A
     Copy CRC AE8C072A
     Copy OK
Track  9
     Filename C:\Testeac\Eurythmics - Greatest Hits(1991)[flac]\09 - Don't Ask Me Why.wav
     Pre-gap length  0:00:00.93
     Peak level 100.0 %
     Track quality 99.9 %
     Test CRC 56C7B8CA
     Copy CRC 56C7B8CA
     Copy OK
Track 10
     Filename C:\Testeac\Eurythmics - Greatest Hits(1991)[flac]\10 - I Need A Man.wav
     Pre-gap length  0:00:02.29
     Peak level 100.0 %
     Track quality 99.9 %
     Test CRC B9D57887
     Copy CRC B9D57887
     Copy OK
Track 11
     Filename C:\Testeac\Eurythmics - Greatest Hits(1991)[flac]\11 - Love Is A Stranger.wav
     Pre-gap length  0:00:03.06
     Peak level 100.0 %
     Track quality 100.0 %
     Test CRC 78363051
     Copy CRC 78363051
     Copy OK
Track 12
     Filename C:\Testeac\Eurythmics - Greatest Hits(1991)[flac]\12 - Thorn In My Side.wav
     Pre-gap length  0:00:03.09
     Peak level 99.8 %
     Track quality 99.9 %
     Test CRC 5356967C
     Copy CRC 5356967C
     Copy OK
Track 13
     Filename C:\Testeac\Eurythmics - Greatest Hits(1991)[flac]\13 - The King & Queen Of America.wav
     Pre-gap length  0:00:02.02
     Peak level 100.0 %
     Track quality 99.9 %
     Test CRC C847CEEC
     Copy CRC C847CEEC
     Copy OK
Track 14
     Filename C:\Testeac\Eurythmics - Greatest Hits(1991)[flac]\14 - Angel.wav
     Pre-gap length  0:00:02.13
     Peak level 100.0 %
     Track quality 99.9 %
     Test CRC EF0C1004
     Copy CRC EF0C1004
     Copy OK
No errors occured
End of status report

Отчет auCDtect Task Manager

-----------------------
DON'T MODIFY THIS FILE
-----------------------
PERFORMER: auCDtect Task Manager, ver. 1.6.0 RC1 build 1.6.0.1
Copyright (c) 2008-2010 y-soft. All rights reserved
http://y-soft.org
ANALYZER: auCDtect: CD records authenticity detector, version 0.8.2
Copyright (c) 2004 Oleg Berngardt. All rights reserved.
Copyright (c) 2004 Alexander Djourik. All rights reserved.
FILE: 14 - Angel.flac
  Size: 34548364 Hash: DE4DEAD186DBD6005EB151AB762BCB9E Accuracy: -m0
  Conclusion: CDDA 99%
  Signature: 89E4381FEC39ABE749F528CF71275BD1BC0F8D5A
FILE: 13 - The King & Queen Of America.flac
  Size: 33331487 Hash: 4FF94B773B23BAF28E7A5DA8F605623E Accuracy: -m0
  Conclusion: CDDA 100%
  Signature: 822FA8FA12294FFDDD2036062E727ABB738DD9E2
FILE: 12 - Thorn In My Side.flac
  Size: 32453495 Hash: E566F5C1F17CDF24B335DF400C8F95F3 Accuracy: -m0
  Conclusion: CDDA 100%
  Signature: FEEA0C85A70D909214B37104E5EB955582D8C753
FILE: 11 - Love Is A Stranger.flac
  Size: 24295094 Hash: C8B1D9C572D0A31815FB137A761B0E30 Accuracy: -m0
  Conclusion: CDDA 100%
  Signature: 5345321D1547B2200A4277878923F6731D59E219
FILE: 10 - I Need A Man.flac
  Size: 31624252 Hash: 55EF8B3D902E25FB0FEE147B479056C4 Accuracy: -m0
  Conclusion: CDDA 100%
  Signature: 7504896577BF8E0931C17DED37112A9B3B0472F2
FILE: 09 - Don't Ask Me Why.flac
  Size: 29321884 Hash: 24B858D8961348AF494DA0A8366B3556 Accuracy: -m0
  Conclusion: CDDA 100%
  Signature: BF174CF1352DA3EA9BA99CF15391AA92372E4264
FILE: 08 - Missionary Man.flac
  Size: 27588306 Hash: 2E045BAD3FA0756B614777D44DB4F7E0 Accuracy: -m0
  Conclusion: MPEG 98%
  Signature: 79C65E37FE6A054632323DD47E6386D4BCB65D5F
FILE: 07 - There Must Be An Angel (Playing With My Heart).flac
  Size: 38513004 Hash: ADB37D990875CD12FFB94803F8F5EA78 Accuracy: -m0
  Conclusion: CDDA 100%
  Signature: 28E78772336EE707D9DB3E64811B95A943B5D2F0
FILE: 06 - Sisters Are Doing It For Themselves.flac
  Size: 45263269 Hash: 05245C2C5835C6112E637697F88FE948 Accuracy: -m0
  Conclusion: MPEG 79%
  Signature: D425D2C90CA0C2AE1FB0D8DAE83EE682EB7BE939
FILE: 05 - Would I Lie To You.flac
  Size: 32615582 Hash: 2A59AA272F5998F5D7EC1260E08F331B Accuracy: -m0
  Conclusion: CDDA 100%
  Signature: 8DBBAB1B1A7A4B3ABE4020459F909F24FC50A026
FILE: 04 - Who's That Girl.flac
  Size: 25600736 Hash: 80344555AED9319D3EAFCECB379E152A Accuracy: -m0
  Conclusion: CDDA 100%
  Signature: B95127AEA4D733CBCA0230AAA1E48A16D68F7B24
FILE: 03 - Here Comes The Rain Again.flac
  Size: 36453946 Hash: AC90337FD64A59CAC288862DC3728EEA Accuracy: -m0
  Conclusion: CDDA 100%
  Signature: C03E365B508D2F066D8B04698B28951E08E3CFAD
FILE: 02 - When Tomorrow Comes.flac
  Size: 34815418 Hash: 4DAD9525845699F091EEFC15FB9A3493 Accuracy: -m0
  Conclusion: MPEG 100%
  Signature: 98F7734118B696010B6E6F5F4F92670300C2C5C1
FILE: 01 - Sweet Dreams (Are Made of This).flac
  Size: 31927850 Hash: 64994F33C4AEF4240BD9D5556FCEE58F Accuracy: -m0
  Conclusion: CDDA 100%
  Signature: 090A2CB66E531BF49329860D67AB15B39BE49711
-
Яндекс.Метрика
Рейтинг@Mail.ru