[ Сегодня на трекере фрилич! Идет свободное скачивание без начисления Download ]

London Boys - Greatest Hits (1998) [FLAC|Lossless]<Pop>

 

Создавать темы 17-Дек-2014 11:57

-London Boys - Greatest Hits (1998)- Год: 1998
Жанр: Pop
Продолжительность: 01:13:00
Кодек: FLAC
Битрейт: Lossless
Наличие сканов в содержимом раздачи: да
Издатель (лейбл): EastWest
Номер по каталогу: 258107-2
Треклист:
01. Requiem (4:22)
02. Harlem Desire (3:47)
03. Wichitah Woman (3:59)
04. My Love (3:07)
05. I'm Gonna Give My Heart (4:08)
06. El Matinero (4:16)
07. Dance Dance Dance (3:55)
08. The Midi Dance (3:14)
09. Sweet Soul Musoc (3:32)
10. Tonight! Tonight! (3:55)
11. Freedom (3:59)
12. Love Train (3:53)
13. Chapel Of Love (3:40)
14. Baby Come Back (3:36)
15. Philadelphia '69 (3:50)
16. Oh, Tracy (3:56)
17. We're Calling The World (4:09)
18. My Prayer (4:15)
19. Walk On By (3:28)

Отчёт ЕАС

Отчёт EAC об извлечении, выполненном 18. марта 2008, 20:55 для диска:
London Boys / Greatest Hits
Дисковод: TEAC    DV-W516GB   Adapter: 0  ID: 2
Режим чтения: Достоверный (C2: нет, Точный поток: да, Отключение кэша: да)
Коррекция смещения при чтении: 12
Способность читать области Lead-in и Lead-out : Нет
Выходной формат: Внутренние WAV-операции
                     44.100 Гц; 16 бит; стерео
Другие параметры:
    Заполнение пропущенных сэмплов тишиной : Да
    Удаление блоков с тишиной в начале и конце : Нет
    Установленный внешний ASPI-интерфейс
Характеристики диапазона извлечения и сообщения об ошибках
Выбранный диапазон
     Имя файла D:\RELEASE\London Boys - Greatest Hits\London Boys - Greatest Hits.wav
     Пиковый уровень 90.5 %
     Качество диапазона 100.0 %
     CRC 729AB16A
     Копирование... OK
Ошибок не произошло
Конец отчёта

Отчёт auCDtect Task manager

-----------------------
DON'T MODIFY THIS FILE
-----------------------
PERFORMER: auCDtect Task Manager, ver. 1.6.0 RC1 build 1.6.0.1
Copyright (c) 2008-2010 y-soft. All rights reserved
http://y-soft.org
ANALYZER: auCDtect: CD records authenticity detector, version 0.8.2
Copyright (c) 2004 Oleg Berngardt. All rights reserved.
Copyright (c) 2004 Alexander Djourik. All rights reserved.
FILE: London Boys - Greatest Hits.flac
  Size: 514476480 Hash: 233E61CB921E199AF7759014FCB790CB Accuracy: -m0
  Conclusion: CDDA 100%
  Signature: B8912AA5F0D68128A42FF00D871926693BFCA523

Содержание индексной карты (.CUE&#41;

REM GENRE Eurodance
REM DATE 1990
REM DISCID 16111C13
REM COMMENT "ExactAudioCopy v0.95b4"
PERFORMER "London Boys"
TITLE "Greatest Hits"
FILE "London Boys - Greatest Hits.wav" WAVE
  TRACK 01 AUDIO
    TITLE "Requiem"
    PERFORMER "London Boys"
    INDEX 01 00:00:00
  TRACK 02 AUDIO
    TITLE "Harlem Desire"
    PERFORMER "London Boys"
    INDEX 00 04:21:28
    INDEX 01 04:21:50
  TRACK 03 AUDIO
    TITLE "Wichitah Woman"
    PERFORMER "London Boys"
    INDEX 01 08:08:40
  TRACK 04 AUDIO
    TITLE "My Love"
    PERFORMER "London Boys"
    INDEX 01 12:07:65
  TRACK 05 AUDIO
    TITLE "I'm Gonna Give My Heart"
    PERFORMER "London Boys"
    INDEX 01 15:15:02
  TRACK 06 AUDIO
    TITLE "El Matinero"
    PERFORMER "London Boys"
    INDEX 00 19:22:66
    INDEX 01 19:22:72
  TRACK 07 AUDIO
    TITLE "Dance Dance Dance"
    PERFORMER "London Boys"
    INDEX 00 23:38:35
    INDEX 01 23:38:50
  TRACK 08 AUDIO
    TITLE "The Midi Dance"
    PERFORMER "London Boys"
    INDEX 01 27:33:50
  TRACK 09 AUDIO
    TITLE "Sweet Soul Musoc"
    PERFORMER "London Boys"
    INDEX 01 30:47:20
  TRACK 10 AUDIO
    TITLE "Tonight! Tonight!"
    PERFORMER "London Boys"
    INDEX 01 34:19:25
  TRACK 11 AUDIO
    TITLE "Freedom"
    PERFORMER "London Boys"
    INDEX 01 38:14:05
  TRACK 12 AUDIO
    TITLE "Love Train"
    PERFORMER "London Boys"
    INDEX 01 42:12:45
  TRACK 13 AUDIO
    TITLE "Chapel Of Love"
    PERFORMER "London Boys"
    INDEX 01 46:05:30
  TRACK 14 AUDIO
    TITLE "Baby Come Back"
    PERFORMER "London Boys"
    INDEX 01 49:45:42
  TRACK 15 AUDIO
    TITLE "Philadelphia '69"
    PERFORMER "London Boys"
    INDEX 01 53:21:72
  TRACK 16 AUDIO
    TITLE "Oh, Tracy"
    PERFORMER "London Boys"
    INDEX 01 57:12:27
  TRACK 17 AUDIO
    TITLE "We're Calling The World"
    PERFORMER "London Boys"
    INDEX 01 61:08:52
  TRACK 18 AUDIO
    TITLE "My Prayer"
    PERFORMER "London Boys"
    INDEX 00 65:18:00
    INDEX 01 65:18:07
  TRACK 19 AUDIO
    TITLE "Walk On By"
    PERFORMER "London Boys"
    INDEX 01 69:32:65
-
Яндекс.Метрика
Рейтинг@Mail.ru