[ Сегодня на трекере фрилич! Идет свободное скачивание без начисления Download ]

A-Teens - 4 albums (1999-2004) [FLAC/APE|Lossless] <Pop, Europop>

 

Создавать темы 17-Дек-2014 11:57

-A*Teens - 4 albums (1999-2004)- Год: 1999-2004
Жанр: Pop, Europop
Продолжительность: 03:11:16
Кодек: FLAC/APE
Битрейт: LosslessИнформация: A-Teens начали работать над своим дебютным альбомом “The ABBA Generation” в ноябре 1998 года. Вместе с продюсерами было отобрано двенадцать песен, которые вошли в диск. Первый же сингл “Mamma Mia” получил большой успех, не в последнюю очередь благодаря стильному видеоклипу. Видео для “Mamma Mia” было отснято в марте за пределами Стокгольма. В ролике имеются некоторые параллели с видео ABBA, например, классическое расположение участников спиной к спине. На вопрос о видео, Сара отвечает: «Это захватывающе. Мы никогда не снимались прежде в клипах. Мы не ожидали, что придется сделать столько работы для трехминутного видео. Но мы хорошо провели время».
Песня возглавила местные хит-парады, где находилась на первом месте несколько месяцев подряд. Группа выбрала для раскрутки песню “Mamma Mia” не случайно: именно этот сингл принес ABBA успех в европейских чартах в 1975—1976 годах, заняв первое место. С этого трека ABBA когда-то начали чрезвычайно успешную карьеру в Англии, где также заняли первую строчку хит-парадов в 1975 году.
«Это очень весело — петь песни ABBA и танцевать под них, — комментирует Мэри, — смешивать современные музыкальные стили с фантастическим материалом ABBA очень захватывающе». «Мы рассматриваем наш A*Teens как дань тому, что делали ABBA, и надеемся, что Бьорну и Бенни, и тем, кто написал эти песни, понравится то, что мы делаем, — продолжает Дани. — Было довольно сложно исполнять песни ABBA. Мелодии кажутся простыми для слушателя, потому что все, в той или иной степени, росли вместе с ними. Но когда мы начали делать запись в студии, мы поняли, какой невероятно сложной и какой совершенной является их музыка. Это просто фантастика».
Альбомы:

1999 - The ABBA Generation

Продолжительность: 00:42:41
Кодек: APE
Треклист:
[03:42] 01. Mamma Mia
[03:54] 02. Gimme! Gimme! Gimme! (A Man After Midnight)
[03:50] 03. Super Trouper
[03:55] 04. One Of Us
[03:40] 05. Voulez-Vous
[03:10] 06. S.O.S
[03:48] 07. Dancing Queen
[03:51] 08. Take A Chance On Me
[04:02] 09. Lay All Your Love On Me
[04:17] 10. The Name Of The Game
[04:28] 11. Our Last Summer

Отчет EAC&#58;

Отчёт EAC об извлечении, выполненном 20. мая 2007, 22:23 для диска:
A-TEENS / The ABBA Generation
Дисковод: TSSTcorpCD/DVDW SH-S182M Adapter: 1 ID: 0
Режим чтения: Достоверный (C2: нет, Точный поток: да, Отключение кэша: да)
Комбинированное смещение чтения/записи: 0
Способность читать области Lead-in и Lead-out : Нет
Выходной формат: Внутренние WAV-операции
44.100 Гц; 16 бит; стерео
Другие параметры:
Заполнение пропущенных сэмплов тишиной : Да
Удаление блоков с тишиной в начале и конце : Нет
Встроенный Win32-интерфейс для Win NT/2000
Характеристики диапазона извлечения и сообщения об ошибках
Выбранный диапазон
Имя файла C:\Documents and Settings\Администратор\Мои документы\Downloads\A-TEENS - The ABBA Generation\A-TEENS - The ABBA Generation.wav
Пиковый уровень 100.0 %
Качество диапазона 99.9 %
CRC 2C59E142
Копирование... OK
Ошибок не произошло
Конец отчёта
------------------------------------------------------------
Отчёт EAC об извлечении, выполненном 20. мая 2007, 22:23 для диска:
A-TEENS / The ABBA Generation
Дисковод: TSSTcorpCD/DVDW SH-S182M Adapter: 1 ID: 0
Режим чтения: Достоверный (C2: нет, Точный поток: да, Отключение кэша: да)
Комбинированное смещение чтения/записи: 0
Способность читать области Lead-in и Lead-out : Нет
Выходной формат: Внутренние WAV-операции
44.100 Гц; 16 бит; стерео
Другие параметры:
Заполнение пропущенных сэмплов тишиной : Да
Удаление блоков с тишиной в начале и конце : Нет
Встроенный Win32-интерфейс для Win NT/2000
Характеристики диапазона извлечения и сообщения об ошибках
Выбранный диапазон
Имя файла C:\Documents and Settings\Администратор\Мои документы\Downloads\A-TEENS - The ABBA Generation\A-TEENS - The ABBA Generation.wav
Пиковый уровень 100.0 %
Качество диапазона 99.9 %
CRC 2C59E142
Копирование... OK
Ошибок не произошло
Конец отчёта

Отчет Audiochecker&#58;

AUDIOCHECKER v2.0 beta (build 457) - by Dester - [url=mailto:[email protected]][email protected][/url]
~~~~~~~~~~~~~~~~~~~~~~~~~~~~~~~~~~
-=== НЕ РЕДАКТИРУЙТЕ ЭТОТ ФАЙЛ! ===-
Путь: ...\1999 - The ABBA Generation
01 -=- A-TEENS - The ABBA Generation.ape -=- CDDA (100%)
61616612

2001 - Teen Spirit

Продолжительность: 00:47:13
Кодек: APE (Tracks)
Треклист:
[03:15] 01. Bouncing off the Ceiling
[03:22] 02. ...To the Music
[03:40] 03. Halfway Around the World
[03:07] 04. Firefly
[03:03] 05. Sugar Rush
[03:27] 06. Rockin'
[04:12] 07. Around the Corner of Your Eye
[03:03] 08. Slammin' Kind of Love
[03:16] 09. All My Love
[03:18] 10. For All That I Am
[03:16] 11. That's What (It's All About)
[03:10] 12. Morning Light
[03:12] 13. Back For More
[03:46] 14. Don't Even Know Your Name (Bonus)

Отчет EAC&#58;

Отчёт EAC об извлечении, выполненном 28. сентября 2007, 23:10 для диска:
A-Teens / Teen Spirit
Дисковод: TSSTcorpDVD-ROM SH-D162C Adapter: 1 ID: 0
Режим чтения: Достоверный (C2: нет, Точный поток: да, Отключение кэша: да)
Коррекция смещения при чтении: 6
Способность читать области Lead-in и Lead-out : Нет
Выходной формат: C:\WinApps\!Audio\Monkey's Audio\MAC.exe (Monkey's Audio (без потерь))
Extra High Lossless Compression
Другие параметры:
Заполнение пропущенных сэмплов тишиной : Да
Удаление блоков с тишиной в начале и конце : Нет
Встроенный Win32-интерфейс для Win NT/2000
Трек 1
Имя файла D:\A Teens\01. Bouncing off the Ceiling.wav
Пиковый уровень 97.7 %
Качество трека 100.0 %
CRC копии 3DC26046
Копирование... OK
Трек 2
Имя файла D:\A Teens\02. ...To the Music.wav
Пиковый уровень 97.7 %
Качество трека 99.9 %
CRC копии AB9CAE65
Копирование... OK
Трек 3
Имя файла D:\A Teens\03. Halfway Around the World.wav
Пиковый уровень 97.7 %
Качество трека 100.0 %
CRC копии 9A46BC32
Копирование... OK
Трек 4
Имя файла D:\A Teens\04. Firefly.wav
Пиковый уровень 97.7 %
Качество трека 99.9 %
CRC копии 8C3BD747
Копирование... OK
Трек 5
Имя файла D:\A Teens\05. Sugar Rush.wav
Пиковый уровень 97.7 %
Качество трека 100.0 %
CRC копии 1671B2AF
Копирование... OK
Трек 6
Имя файла D:\A Teens\06. Rockin'.wav
Пиковый уровень 97.7 %
Качество трека 99.9 %
CRC копии 41E66B8A
Копирование... OK
Трек 7
Имя файла D:\A Teens\07. Around the Corner of Your Eye.wav
Пиковый уровень 98.8 %
Качество трека 100.0 %
CRC копии D7BD0A67
Копирование... OK
Трек 8
Имя файла D:\A Teens\08. Slammin' Kind of Love.wav
Пиковый уровень 97.7 %
Качество трека 100.0 %
CRC копии 9EEE2819
Копирование... OK
Трек 9
Имя файла D:\A Teens\09. All My Love.wav
Пиковый уровень 97.7 %
Качество трека 100.0 %
CRC копии 8B8AFDF7
Копирование... OK
Трек 10
Имя файла D:\A Teens\10. For All That I Am.wav
Пиковый уровень 97.7 %
Качество трека 99.9 %
CRC копии 91782222
Копирование... OK
Трек 11
Имя файла D:\A Teens\11. That's What (It's All About).wav
Пиковый уровень 97.7 %
Качество трека 100.0 %
CRC копии D9CA5CFE
Копирование... OK
Трек 12
Имя файла D:\A Teens\12. Morning Light.wav
Пиковый уровень 97.7 %
Качество трека 100.0 %
CRC копии 74CE3954
Копирование... OK
Трек 13
Имя файла D:\A Teens\13. Back For More.wav
Пиковый уровень 97.7 %
Качество трека 100.0 %
CRC копии 085943E9
Копирование... OK
Трек 14
Имя файла D:\A Teens\14. Don't Even Know Your Name (Bonus).wav
Пиковый уровень 98.8 %
Качество трека 100.0 %
CRC копии 81D2ED1A
Копирование... OK
Ошибок не произошло
Конец отчёта

Отчет Audiochecker&#58;

AUDIOCHECKER v2.0 beta (build 457) - by Dester - [url=mailto:[email protected]][email protected][/url]
~~~~~~~~~~~~~~~~~~~~~~~~~~~~~~~~~~
-=== НЕ РЕДАКТИРУЙТЕ ЭТОТ ФАЙЛ! ===-
Путь: ...\2001 - Teen Spirit
01 -=- 01. Bouncing off the Ceiling.ape -=- CDDA (100%)
02 -=- 02. ...To the Music.ape -=- CDDA (100%)
03 -=- 03. Halfway Around the World.ape -=- CDDA (100%)
04 -=- 04. Firefly.ape -=- CDDA (100%)
05 -=- 05. Sugar Rush.ape -=- CDDA (99%)
06 -=- 06. Rockin'.ape -=- CDDA (100%)
07 -=- 07. Around the Corner of Your Eye.ape -=- CDDA (99%)
08 -=- 08. Slammin' Kind of Love.ape -=- CDDA (100%)
09 -=- 09. All My Love.ape -=- CDDA (100%)
10 -=- 10. For All That I Am.ape -=- CDDA (100%)
11 -=- 11. That's What (It's All About).ape -=- CDDA (100%)
12 -=- 12. Morning Light.ape -=- CDDA (100%)
13 -=- 13. Back For More.ape -=- CDDA (100%)
14 -=- 14. Don't Even Know Your Name (Bonus).ape -=- CDDA (100%)
Сводка 99,86% CDDA
246545668

2003 - New Arrival

Продолжительность: 00:45:47
Кодек: FLAC (Tracks)
Треклист:
[03:14] 01. Floorfiller
[03:01] 02. Have A Little Faith In Me
[02:52] 03. Shame Shame Shame
[03:24] 04. Let Your Heart Do All The Talking
[03:00] 05. A Perfect Match
[02:55] 06. The Letter
[03:35] 07. Cross My Heart
[03:30] 08. In The Blink Of An Eye
[03:02] 09. School's Out (Feat. Alice Cooper)
[03:10] 10. Closer To Perfection
[03:14] 11. Shangri La
[03:31] 12. One Night In Bangkok
[03:05] 13. Can't Help Falling In Love (Bonus Track)
[04:08] 14. Heartbreak Lullaby (Ballad Version; Bonus Track)

Отчет EAC&#58;

EAC extraction logfile from 30. April 2006, 20:56 for CD
A-Teens / New Arrival
Used drive : PHILIPS DVDR16LS Adapter: 5 ID: 0
Read mode : Secure with NO C2, accurate stream, disable cache
Read offset correction : 618
Overread into Lead-In and Lead-Out : No
Used output format : C:\Program Files\FLAC\flac.exe (User Defined Encoder)
128 kBit/s
Additional command line options : -5 -V -T "ARTIST=%a" -T "TITLE=%t" -T "ALBUM=%g" -T "DATE=%y" -T "TRACKNUMBER=%n" -T "GENRE=%m" -T "COMMENT=EAC Flac 1.1.2 -5" %s
Other options :
Fill up missing offset samples with silence : Yes
Delete leading and trailing silent blocks : No
Native Win32 interface for Win NT & 2000
Track 1
Filename C:\EAC\A-Teens -- New Arrival\01 - Floorfiller.wav
Pre-gap length 0:00:02.00
Peak level 98.8 %
Track quality 100.0 %
Test CRC ADD1F5F0
Copy CRC ADD1F5F0
Copy OK
Track 2
Filename C:\EAC\A-Teens -- New Arrival\02 - Have A Little Faith In Me.wav
Pre-gap length 0:00:02.54
Peak level 98.8 %
Track quality 100.0 %
Test CRC DCC55FD8
Copy CRC DCC55FD8
Copy OK
Track 3
Filename C:\EAC\A-Teens -- New Arrival\03 - Shame Shame Shame.wav
Pre-gap length 0:00:02.31
Peak level 98.8 %
Track quality 100.0 %
Test CRC 30557C10
Copy CRC 30557C10
Copy OK
Track 4
Filename C:\EAC\A-Teens -- New Arrival\04 - Let Your Heart Do All The Talking.wav
Pre-gap length 0:00:02.15
Peak level 98.8 %
Track quality 100.0 %
Test CRC D6F79237
Copy CRC D6F79237
Copy OK
Track 5
Filename C:\EAC\A-Teens -- New Arrival\05 - A Perfect Match.wav
Pre-gap length 0:00:02.73
Peak level 98.8 %
Track quality 100.0 %
Test CRC 4A002B2F
Copy CRC 4A002B2F
Copy OK
Track 6
Filename C:\EAC\A-Teens -- New Arrival\06 - The Letter.wav
Pre-gap length 0:00:02.30
Peak level 98.8 %
Track quality 100.0 %
Test CRC 5029F9AE
Copy CRC 5029F9AE
Copy OK
Track 7
Filename C:\EAC\A-Teens -- New Arrival\07 - Cross My Heart.wav
Pre-gap length 0:00:02.21
Peak level 98.8 %
Track quality 100.0 %
Test CRC A2DE35ED
Copy CRC A2DE35ED
Copy OK
Track 8
Filename C:\EAC\A-Teens -- New Arrival\08 - In The Blink Of An Eye.wav
Pre-gap length 0:00:03.16
Peak level 98.8 %
Track quality 100.0 %
Test CRC 377F9BD0
Copy CRC 377F9BD0
Copy OK
Track 9
Filename C:\EAC\A-Teens -- New Arrival\09 - School's Out (Feat. Alice Cooper).wav
Pre-gap length 0:00:03.08
Peak level 98.8 %
Track quality 100.0 %
Test CRC B79661E4
Copy CRC B79661E4
Copy OK
Track 10
Filename C:\EAC\A-Teens -- New Arrival\10 - Closer To Perfection.wav
Pre-gap length 0:00:02.33
Peak level 98.8 %
Track quality 100.0 %
Test CRC 51D22452
Copy CRC 51D22452
Copy OK
Track 11
Filename C:\EAC\A-Teens -- New Arrival\11 - Shangri La.wav
Pre-gap length 0:00:02.47
Peak level 98.8 %
Track quality 99.9 %
Test CRC FC2E1AD4
Copy CRC FC2E1AD4
Copy OK
Track 12
Filename C:\EAC\A-Teens -- New Arrival\12 - One Night In Bangkok.wav
Pre-gap length 0:00:02.55
Peak level 98.8 %
Track quality 99.9 %
Test CRC 726E976E
Copy CRC 726E976E
Copy OK
Track 13
Filename C:\EAC\A-Teens -- New Arrival\13 - Can't Help Falling In Love (Bonus Track).wav
Pre-gap length 0:00:03.09
Peak level 98.8 %
Track quality 100.0 %
Test CRC 5F1EF80D
Copy CRC 5F1EF80D
Copy OK
Track 14
Filename C:\EAC\A-Teens -- New Arrival\14 - Heartbreak Lullaby (Ballad Version; Bonus Track).wav
Pre-gap length 0:00:02.38
Peak level 98.8 %
Track quality 100.0 %
Test CRC 82BD9CCC
Copy CRC 82BD9CCC
Copy OK
No errors occured
End of status report

Отчет Audiochecker&#58;

AUDIOCHECKER v2.0 beta (build 457) - by Dester - [url=mailto:[email protected]][email protected][/url]
~~~~~~~~~~~~~~~~~~~~~~~~~~~~~~~~~~
-=== НЕ РЕДАКТИРУЙТЕ ЭТОТ ФАЙЛ! ===-
Путь: ...\2003 - New Arrival
01 -=- 01 - Floorfiller.flac -=- CDDA (100%)
02 -=- 02 - Have A Little Faith In Me.flac -=- CDDA (100%)
03 -=- 03 - Shame Shame Shame.flac -=- CDDA (100%)
04 -=- 04 - Let Your Heart Do All The Talking.flac -=- CDDA (100%)
05 -=- 05 - A Perfect Match.flac -=- CDDA (100%)
06 -=- 06 - The Letter.flac -=- CDDA (100%)
07 -=- 07 - Cross My Heart.flac -=- CDDA (100%)
08 -=- 08 - In The Blink Of An Eye.flac -=- CDDA (100%)
09 -=- 09 - School's Out (Feat. Alice Cooper).flac -=- CDDA (100%)
10 -=- 10 - Closer To Perfection.flac -=- CDDA (100%)
11 -=- 11 - Shangri La.flac -=- CDDA (100%)
12 -=- 12 - One Night In Bangkok.flac -=- CDDA (100%)
13 -=- 13 - Can't Help Falling In Love (Bonus Track).flac -=- CDDA (99%)
14 -=- 14 - Heartbreak Lullaby (Ballad Version; Bonus Track).flac -=- CDDA (100%)
Сводка 99,93% CDDA
97603764

2004 - Greatest Hits

Продолжительность: 00:55:33
Кодек: FLAC (Tracks)
Треклист:
[03:44] 01. Mamma Mia
[03:14] 02. Upside Down
[03:55] 03. Gimme Gimme Gimme (A Man After Midnight)
[03:13] 04. Floorfiller
[03:50] 05. Dancing Queen
[03:00] 06. A Perfect Match
[03:21] 07. To The Music
[03:39] 08. Halfway Round The World
[03:05] 09. Sugar Rush
[03:51] 10. Super Trouper
[04:08] 11. Heartbreak Lullaby
[03:05] 12. Can´t Help Falling In Love
[03:25] 13. Let Your Heart Do All The Talking
[03:21] 14. The Final Cut
[03:03] 15. With Or Without You
[03:31] 16. I Promise Myself

Отчет EAC&#58;

Exact Audio Copy V0.99 prebeta 4 from 23. January 2008
EAC extraction logfile from 10. March 2010, 22:23
A -Teens / Greatest Hits
Used drive : MATSHITADVD-RAM UJ870BJ Adapter: 0 ID: 1
Read mode : Secure
Utilize accurate stream : Yes
Defeat audio cache : Yes
Make use of C2 pointers : No
Read offset correction : 102
Overread into Lead-In and Lead-Out : No
Fill up missing offset samples with silence : Yes
Delete leading and trailing silent blocks : No
Null samples used in CRC calculations : Yes
Used interface : Native Win32 interface for Win NT & 2000
Gap handling : Appended to previous track
Used output format : User Defined Encoder
Selected bitrate : 768 kBit/s
Quality : High
Add ID3 tag : No
Command line compressor : C:\Program Files (x86)\Exact Audio Copy\FLAC\FLAC.EXE
Additional command line options : -8 -V -T "ARTIST=%a" -T "TITLE=%t" -T "ALBUM=%g" -T "DATE=%y" -T "TRACKNUMBER=%n" -T "TOTALTRACKS=%x" -T "GENRE=%m" -T "ALBUM ARTIST=%v" -T "ALBUMARTIST=%v" -T "COMMENT=EAC V0.99 prebeta 5, Secure Mode, Test & Copy, Accurat
TOC of the extracted CD
Track | Start | Length | Start sector | End sector
---------------------------------------------------------
1 | 0:00.00 | 3:44.34 | 0 | 16833
2 | 3:44.34 | 3:14.51 | 16834 | 31434
3 | 6:59.10 | 3:55.55 | 31435 | 49114
4 | 10:54.65 | 3:13.41 | 49115 | 63630
5 | 14:08.31 | 3:50.50 | 63631 | 80930
6 | 17:59.06 | 3:00.57 | 80931 | 94487
7 | 20:59.63 | 3:21.73 | 94488 | 109635
8 | 24:21.61 | 3:39.32 | 109636 | 126092
9 | 28:01.18 | 3:05.07 | 126093 | 139974
10 | 31:06.25 | 3:51.45 | 139975 | 157344
11 | 34:57.70 | 4:08.66 | 157345 | 176010
12 | 39:06.61 | 3:05.24 | 176011 | 189909
13 | 42:12.10 | 3:25.01 | 189910 | 205285
14 | 45:37.11 | 3:21.39 | 205286 | 220399
15 | 48:58.50 | 3:03.39 | 220400 | 234163
16 | 52:02.14 | 3:31.30 | 234164 | 250018
Track 1
Filename G:\BT Torrents\A -Teens - Greatest Hits (2004) [FLAC]\01 - Mamma Mia.wav
Pre-gap length 0:00:02.00
Peak level 97.7 %
Track quality 99.9 %
Test CRC 731C855C
Copy CRC 731C855C
Accurately ripped (confidence 5) [16B5477D]
Copy OK
Track 2
Filename G:\BT Torrents\A -Teens - Greatest Hits (2004) [FLAC]\02 - Upside Down.wav
Pre-gap length 0:00:24.65
Peak level 97.7 %
Track quality 100.0 %
Test CRC C3D987D2
Copy CRC C3D987D2
Accurately ripped (confidence 5) [AD95E4CC]
Copy OK
Track 3
Filename G:\BT Torrents\A -Teens - Greatest Hits (2004) [FLAC]\03 - Gimme Gimme Gimme (A Man After Midnight).wav
Pre-gap length 0:00:01.10
Peak level 97.7 %
Track quality 100.0 %
Test CRC 822B9209
Copy CRC 822B9209
Accurately ripped (confidence 5) [BF54291C]
Copy OK
Track 4
Filename G:\BT Torrents\A -Teens - Greatest Hits (2004) [FLAC]\04 - Floorfiller.wav
Pre-gap length 0:00:01.00
Peak level 97.7 %
Track quality 100.0 %
Test CRC FF8FB84C
Copy CRC FF8FB84C
Accurately ripped (confidence 5) [36644B67]
Copy OK
Track 5
Filename G:\BT Torrents\A -Teens - Greatest Hits (2004) [FLAC]\05 - Dancing Queen.wav
Pre-gap length 0:00:45.46
Peak level 94.0 %
Track quality 100.0 %
Test CRC 843CAD31
Copy CRC 843CAD31
Accurately ripped (confidence 5) [FDC26EA9]
Copy OK
Track 6
Filename G:\BT Torrents\A -Teens - Greatest Hits (2004) [FLAC]\06 - A Perfect Match.wav
Pre-gap length 0:00:01.93
Peak level 98.8 %
Track quality 100.0 %
Test CRC F5DA4C39
Copy CRC F5DA4C39
Accurately ripped (confidence 5) [199A4B82]
Copy OK
Track 7
Filename G:\BT Torrents\A -Teens - Greatest Hits (2004) [FLAC]\07 - To The Music.wav
Pre-gap length 0:00:01.78
Peak level 97.7 %
Track quality 100.0 %
Test CRC AFE7EB45
Copy CRC AFE7EB45
Accurately ripped (confidence 5) [75C99CE6]
Copy OK
Track 8
Filename G:\BT Torrents\A -Teens - Greatest Hits (2004) [FLAC]\08 - Halfway Round The World.wav
Pre-gap length 0:00:00.89
Peak level 97.7 %
Track quality 100.0 %
Test CRC A5741CE0
Copy CRC A5741CE0
Accurately ripped (confidence 5) [0117D8C1]
Copy OK
Track 9
Filename G:\BT Torrents\A -Teens - Greatest Hits (2004) [FLAC]\09 - Sugar Rush.wav
Pre-gap length 0:00:00.88
Peak level 97.7 %
Track quality 100.0 %
Test CRC 1E6748B7
Copy CRC 1E6748B7
Accurately ripped (confidence 5) [334505C8]
Copy OK
Track 10
Filename G:\BT Torrents\A -Teens - Greatest Hits (2004) [FLAC]\10 - Super Trouper.wav
Pre-gap length 0:00:02.32
Peak level 97.7 %
Track quality 100.0 %
Test CRC F0307F82
Copy CRC F0307F82
Accurately ripped (confidence 5) [D3883E5A]
Copy OK
Track 11
Filename G:\BT Torrents\A -Teens - Greatest Hits (2004) [FLAC]\11 - Heartbreak Lullaby.wav
Pre-gap length 0:00:00.56
Peak level 97.7 %
Track quality 100.0 %
Test CRC 1D343080
Copy CRC 1D343080
Accurately ripped (confidence 5) [155F8EDE]
Copy OK
Track 12
Filename G:\BT Torrents\A -Teens - Greatest Hits (2004) [FLAC]\12 - Canґt Help Falling In Love.wav
Pre-gap length 0:00:01.04
Peak level 97.7 %
Track quality 100.0 %
Test CRC 2CFED9EC
Copy CRC 2CFED9EC
Accurately ripped (confidence 5) [D1E920F9]
Copy OK
Track 13
Filename G:\BT Torrents\A -Teens - Greatest Hits (2004) [FLAC]\13 - Let Your Heart Do All The Talking.wav
Pre-gap length 0:00:00.74
Peak level 97.7 %
Track quality 100.0 %
Test CRC 0C2F9230
Copy CRC 0C2F9230
Accurately ripped (confidence 5) [81764E0A]
Copy OK
Track 14
Filename G:\BT Torrents\A -Teens - Greatest Hits (2004) [FLAC]\14 - The Final Cut.wav
Peak level 97.7 %
Track quality 100.0 %
Test CRC 21678265
Copy CRC 21678265
Accurately ripped (confidence 5) [5EED3F50]
Copy OK
Track 15
Filename G:\BT Torrents\A -Teens - Greatest Hits (2004) [FLAC]\15 - With Or Without You.wav
Pre-gap length 0:00:00.72
Peak level 97.7 %
Track quality 100.0 %
Test CRC 0791D3C8
Copy CRC 0791D3C8
Accurately ripped (confidence 5) [0B931B70]
Copy OK
Track 16
Filename G:\BT Torrents\A -Teens - Greatest Hits (2004) [FLAC]\16 - I Promise Myself.wav
Pre-gap length 0:00:00.28
Peak level 97.7 %
Track quality 100.0 %
Test CRC 8A93E720
Copy CRC 8A93E720
Accurately ripped (confidence 5) [3ADABE69]
Copy OK
All tracks accurately ripped
No errors occurred
End of status report

Отчет Audiochecker&#58;

AUDIOCHECKER v2.0 beta (build 457) - by Dester - [url=mailto:[email protected]][email protected][/url]
~~~~~~~~~~~~~~~~~~~~~~~~~~~~~~~~~~
-=== НЕ РЕДАКТИРУЙТЕ ЭТОТ ФАЙЛ! ===-
Путь: ...\2004 - Greatest Hits
01 -=- 01 - Mamma Mia.flac -=- CDDA (100%)
02 -=- 02 - Upside Down.flac -=- CDDA (100%)
03 -=- 03 - Gimme Gimme Gimme (A Man After Midnight).flac -=- CDDA (100%)
04 -=- 04 - Floorfiller.flac -=- CDDA (100%)
05 -=- 05 - Dancing Queen.flac -=- CDDA (100%)
06 -=- 06 - A Perfect Match.flac -=- CDDA (100%)
07 -=- 07 - To The Music.flac -=- CDDA (100%)
08 -=- 08 - Halfway Round The World.flac -=- CDDA (99%)
09 -=- 09 - Sugar Rush.flac -=- CDDA (100%)
10 -=- 10 - Super Trouper.flac -=- CDDA (99%)
11 -=- 11 - Heartbreak Lullaby.flac -=- CDDA (99%)
12 -=- 12 - Can?t Help Falling In Love.flac -=- CDDA (99%)
12 -=- 13 - Let Your Heart Do All The Talking.flac -=- CDDA (99%)
13 -=- 14 - The Final Cut.flac -=- CDDA (100%)
14 -=- 15 - With Or Without You.flac -=- CDDA (100%)
15 -=- 16 - I Promise Myself.flac -=- CDDA (100%)
Сводка 99,73% CDDA
54955380
-
Яндекс.Метрика
Рейтинг@Mail.ru