Christina Aguilera - Bionic (Deluxe Edition) (2010) [FLAC|Lossless]<Pop, Electro, Synth-Pop>

 

Создавать темы 17-Дек-2014 11:57

-Christina Aguilera - Bionic (Deluxe Edition) (2010)- Год: 2010
Жанр: Pop, Electro, Synth-Pop
Продолжительность: 01:19:03
Кодек: FLAC
Битрейт: Lossless
Наличие сканов в содержимом раздачи: да
Издатель (лейбл): RCA
Номер по каталогу: 88697 71491 2
Треклист:
01. Bionic (3:21)
02. Not Myself Tonight (3:06)
03. Woohoo (feat. Nicki Minaj) (5:28)
04. Elastic Love (3:34)
05. Desnudate (4:25)
06. Love & Glamour (Intro) (0:11)
07. Glam (3:40)
08. Prima Donna (3:26)
09. Morning Dessert (Intro) (1:33)
10. Sex for Breakfast (4:49)
11. Lift Me Up (4:07)
12. My Heart (Intro) (0:19)
13. All I Need (3:33)
14. I Am (3:52)
15. You Lost Me (4:18)
16. I Hate Boys (2:24)
17. My Girls (feat. Peaches) (3:08)
18. Vanity (4:22)
19. Monday Morning (3:55)
20. Bobblehead (3:02)
21. Birds of Prey (4:20)
22. Stronger than Ever (4:16)
23. I Am (Stripped) (3:54)

Отчёт ЕАС

Exact Audio Copy V0.99 prebeta 5 from 4. May 2009
EAC extraction logfile from 5. June 2010, 15:56
Christina Aguilera / Bionic
Used drive  : HL-DT-STDVDRAM GH40F   Adapter: 0  ID: 1
Read mode               : Secure
Utilize accurate stream : Yes
Defeat audio cache      : Yes
Make use of C2 pointers : No
Read offset correction                      : 667
Overread into Lead-In and Lead-Out          : No
Fill up missing offset samples with silence : Yes
Delete leading and trailing silent blocks   : No
Null samples used in CRC calculations       : Yes
Used interface                              : Native Win32 interface for Win NT & 2000
Gap handling                                : Appended to previous track
Used output format              : User Defined Encoder
Selected bitrate                : 128 kBit/s
Quality                         : High
Add ID3 tag                     : No
Command line compressor         : C:\Program Files (x86)\Exact Audio Copy\Flac\flac.exe
Additional command line options : -V -8 -T "artist=%a" -T "title=%t" -T "album=%g" -T "date=%y" -T "tracknumber=%n" -T "genre=%m" %s
TOC of the extracted CD
     Track |   Start  |  Length  | Start sector | End sector
    ---------------------------------------------------------
        1  |  0:00.00 |  3:21.20 |         0    |    15094
        2  |  3:21.20 |  3:06.37 |     15095    |    29081
        3  |  6:27.57 |  5:28.21 |     29082    |    53702
        4  | 11:56.03 |  3:33.39 |     53703    |    69716
        5  | 15:29.42 |  4:25.05 |     69717    |    89596
        6  | 19:54.47 |  0:11.28 |     89597    |    90449
        7  | 20:06.00 |  3:39.59 |     90450    |   106933
        8  | 23:45.59 |  3:25.52 |    106934    |   122360
        9  | 27:11.36 |  1:32.41 |    122361    |   129301
       10  | 28:44.02 |  4:49.12 |    129302    |   150988
       11  | 33:33.14 |  4:07.13 |    150989    |   169526
       12  | 37:40.27 |  0:18.69 |    169527    |   170945
       13  | 37:59.21 |  3:33.07 |    170946    |   186927
       14  | 41:32.28 |  3:52.31 |    186928    |   204358
       15  | 45:24.59 |  4:17.50 |    204359    |   223683
       16  | 49:42.34 |  2:24.12 |    223684    |   234495
       17  | 52:06.46 |  3:07.52 |    234496    |   248572
       18  | 55:14.23 |  4:22.18 |    248573    |   268240
       19  | 59:36.41 |  3:55.29 |    268241    |   285894
       20  | 63:31.70 |  3:01.53 |    285895    |   299522
       21  | 66:33.48 |  4:19.63 |    299523    |   319010
       22  | 70:53.36 |  4:16.15 |    319011    |   338225
       23  | 75:09.51 |  3:54.01 |    338226    |   355776
Track  1
     Filename C:\Users\Alexander\Desktop\EAC Rips\Christina Aguilera - 2010 - Bionic [Deluxe Edition, 23 Tracks, Perfect FLAC]\Christina Aguilera - 2010 - Bionic\01 - Bionic.wav
     Pre-gap length  0:00:02.00
     Peak level 98.8 %
     Track quality 100.0 %
     Test CRC 519F853B
     Copy CRC 519F853B
     Track not present in AccurateRip database
     Copy OK
Track  2
     Filename C:\Users\Alexander\Desktop\EAC Rips\Christina Aguilera - 2010 - Bionic [Deluxe Edition, 23 Tracks, Perfect FLAC]\Christina Aguilera - 2010 - Bionic\02 - Not Myself Tonight.wav
     Peak level 100.0 %
     Track quality 100.0 %
     Test CRC 316BE84C
     Copy CRC 316BE84C
     Track not present in AccurateRip database
     Copy OK
Track  3
     Filename C:\Users\Alexander\Desktop\EAC Rips\Christina Aguilera - 2010 - Bionic [Deluxe Edition, 23 Tracks, Perfect FLAC]\Christina Aguilera - 2010 - Bionic\03 - Woohoo (featuring Nicki Minaj).wav
     Peak level 99.8 %
     Track quality 100.0 %
     Test CRC D6A2DC11
     Copy CRC D6A2DC11
     Track not present in AccurateRip database
     Copy OK
Track  4
     Filename C:\Users\Alexander\Desktop\EAC Rips\Christina Aguilera - 2010 - Bionic [Deluxe Edition, 23 Tracks, Perfect FLAC]\Christina Aguilera - 2010 - Bionic\04 - Elastic Love.wav
     Peak level 99.8 %
     Track quality 99.9 %
     Test CRC 64D7A73A
     Copy CRC 64D7A73A
     Track not present in AccurateRip database
     Copy OK
Track  5
     Filename C:\Users\Alexander\Desktop\EAC Rips\Christina Aguilera - 2010 - Bionic [Deluxe Edition, 23 Tracks, Perfect FLAC]\Christina Aguilera - 2010 - Bionic\05 - Desnudate.wav
     Peak level 100.0 %
     Track quality 100.0 %
     Test CRC 752C3254
     Copy CRC 752C3254
     Track not present in AccurateRip database
     Copy OK
Track  6
     Filename C:\Users\Alexander\Desktop\EAC Rips\Christina Aguilera - 2010 - Bionic [Deluxe Edition, 23 Tracks, Perfect FLAC]\Christina Aguilera - 2010 - Bionic\06 - Love & Glamour (Intro).wav
     Peak level 48.7 %
     Track quality 100.0 %
     Test CRC 9E2EB458
     Copy CRC 9E2EB458
     Track not present in AccurateRip database
     Copy OK
Track  7
     Filename C:\Users\Alexander\Desktop\EAC Rips\Christina Aguilera - 2010 - Bionic [Deluxe Edition, 23 Tracks, Perfect FLAC]\Christina Aguilera - 2010 - Bionic\07 - Glam.wav
     Peak level 99.9 %
     Track quality 100.0 %
     Test CRC 761AF2F0
     Copy CRC 761AF2F0
     Track not present in AccurateRip database
     Copy OK
Track  8
     Filename C:\Users\Alexander\Desktop\EAC Rips\Christina Aguilera - 2010 - Bionic [Deluxe Edition, 23 Tracks, Perfect FLAC]\Christina Aguilera - 2010 - Bionic\08 - Prima Donna.wav
     Peak level 100.0 %
     Track quality 100.0 %
     Test CRC C3A5791E
     Copy CRC C3A5791E
     Track not present in AccurateRip database
     Copy OK
Track  9
     Filename C:\Users\Alexander\Desktop\EAC Rips\Christina Aguilera - 2010 - Bionic [Deluxe Edition, 23 Tracks, Perfect FLAC]\Christina Aguilera - 2010 - Bionic\09 - Morning Dessert (Intro).wav
     Peak level 74.1 %
     Track quality 100.0 %
     Test CRC 2E1DABBA
     Copy CRC 2E1DABBA
     Track not present in AccurateRip database
     Copy OK
Track 10
     Filename C:\Users\Alexander\Desktop\EAC Rips\Christina Aguilera - 2010 - Bionic [Deluxe Edition, 23 Tracks, Perfect FLAC]\Christina Aguilera - 2010 - Bionic\10 - Sex for Breakfast.wav
     Peak level 99.9 %
     Track quality 100.0 %
     Test CRC 028B5698
     Copy CRC 028B5698
     Track not present in AccurateRip database
     Copy OK
Track 11
     Filename C:\Users\Alexander\Desktop\EAC Rips\Christina Aguilera - 2010 - Bionic [Deluxe Edition, 23 Tracks, Perfect FLAC]\Christina Aguilera - 2010 - Bionic\11 - Lift Me Up.wav
     Peak level 100.0 %
     Track quality 100.0 %
     Test CRC B6A49E40
     Copy CRC B6A49E40
     Track not present in AccurateRip database
     Copy OK
Track 12
     Filename C:\Users\Alexander\Desktop\EAC Rips\Christina Aguilera - 2010 - Bionic [Deluxe Edition, 23 Tracks, Perfect FLAC]\Christina Aguilera - 2010 - Bionic\12 - My Heart (Intro).wav
     Peak level 54.2 %
     Track quality 99.4 %
     Test CRC 82169FDB
     Copy CRC 82169FDB
     Track not present in AccurateRip database
     Copy OK
Track 13
     Filename C:\Users\Alexander\Desktop\EAC Rips\Christina Aguilera - 2010 - Bionic [Deluxe Edition, 23 Tracks, Perfect FLAC]\Christina Aguilera - 2010 - Bionic\13 - All I Need.wav
     Pre-gap length  0:00:00.12
     Peak level 98.8 %
     Track quality 100.0 %
     Test CRC E822B5B4
     Copy CRC E822B5B4
     Track not present in AccurateRip database
     Copy OK
Track 14
     Filename C:\Users\Alexander\Desktop\EAC Rips\Christina Aguilera - 2010 - Bionic [Deluxe Edition, 23 Tracks, Perfect FLAC]\Christina Aguilera - 2010 - Bionic\14 - I Am.wav
     Peak level 99.9 %
     Track quality 99.9 %
     Test CRC CA7EE064
     Copy CRC CA7EE064
     Track not present in AccurateRip database
     Copy OK
Track 15
     Filename C:\Users\Alexander\Desktop\EAC Rips\Christina Aguilera - 2010 - Bionic [Deluxe Edition, 23 Tracks, Perfect FLAC]\Christina Aguilera - 2010 - Bionic\15 - You Lost Me.wav
     Peak level 100.0 %
     Track quality 99.9 %
     Test CRC 2F59A768
     Copy CRC 2F59A768
     Track not present in AccurateRip database
     Copy OK
Track 16
     Filename C:\Users\Alexander\Desktop\EAC Rips\Christina Aguilera - 2010 - Bionic [Deluxe Edition, 23 Tracks, Perfect FLAC]\Christina Aguilera - 2010 - Bionic\16 - I Hate Boys.wav
     Pre-gap length  0:00:00.31
     Peak level 99.9 %
     Track quality 100.0 %
     Test CRC DCD6ED72
     Copy CRC DCD6ED72
     Track not present in AccurateRip database
     Copy OK
Track 17
     Filename C:\Users\Alexander\Desktop\EAC Rips\Christina Aguilera - 2010 - Bionic [Deluxe Edition, 23 Tracks, Perfect FLAC]\Christina Aguilera - 2010 - Bionic\17 - My Girls (featuring Peaches).wav
     Peak level 99.9 %
     Track quality 100.0 %
     Test CRC 962914B5
     Copy CRC 962914B5
     Track not present in AccurateRip database
     Copy OK
Track 18
     Filename C:\Users\Alexander\Desktop\EAC Rips\Christina Aguilera - 2010 - Bionic [Deluxe Edition, 23 Tracks, Perfect FLAC]\Christina Aguilera - 2010 - Bionic\18 - Vanity.wav
     Peak level 95.5 %
     Track quality 100.0 %
     Test CRC 05DE09C9
     Copy CRC 05DE09C9
     Track not present in AccurateRip database
     Copy OK
Track 19
     Filename C:\Users\Alexander\Desktop\EAC Rips\Christina Aguilera - 2010 - Bionic [Deluxe Edition, 23 Tracks, Perfect FLAC]\Christina Aguilera - 2010 - Bionic\19 - Monday Morning.wav
     Pre-gap length  0:00:00.47
     Peak level 98.8 %
     Track quality 100.0 %
     Test CRC B94D4514
     Copy CRC B94D4514
     Track not present in AccurateRip database
     Copy OK
Track 20
     Filename C:\Users\Alexander\Desktop\EAC Rips\Christina Aguilera - 2010 - Bionic [Deluxe Edition, 23 Tracks, Perfect FLAC]\Christina Aguilera - 2010 - Bionic\20 - Bobblehead.wav
     Pre-gap length  0:00:01.07
     Peak level 99.9 %
     Track quality 100.0 %
     Test CRC 49C891B0
     Copy CRC 49C891B0
     Track not present in AccurateRip database
     Copy OK
Track 21
     Filename C:\Users\Alexander\Desktop\EAC Rips\Christina Aguilera - 2010 - Bionic [Deluxe Edition, 23 Tracks, Perfect FLAC]\Christina Aguilera - 2010 - Bionic\21 - Birds of Prey.wav
     Peak level 100.0 %
     Track quality 100.0 %
     Test CRC 4EBB81C4
     Copy CRC 4EBB81C4
     Track not present in AccurateRip database
     Copy OK
Track 22
     Filename C:\Users\Alexander\Desktop\EAC Rips\Christina Aguilera - 2010 - Bionic [Deluxe Edition, 23 Tracks, Perfect FLAC]\Christina Aguilera - 2010 - Bionic\22 - Stronger than Ever.wav
     Pre-gap length  0:00:01.01
     Peak level 100.0 %
     Track quality 100.0 %
     Test CRC 2D93D124
     Copy CRC 2D93D124
     Track not present in AccurateRip database
     Copy OK
Track 23
     Filename C:\Users\Alexander\Desktop\EAC Rips\Christina Aguilera - 2010 - Bionic [Deluxe Edition, 23 Tracks, Perfect FLAC]\Christina Aguilera - 2010 - Bionic\23 - I Am (Stripped).wav
     Pre-gap length  0:00:00.26
     Peak level 100.0 %
     Track quality 100.0 %
     Test CRC BE5236B0
     Copy CRC BE5236B0
     Track not present in AccurateRip database
     Copy OK
None of the tracks are present in the AccurateRip database
No errors occurred
End of status report

Отчёт auCDtect Task manager

-----------------------
DON'T MODIFY THIS FILE
-----------------------
PERFORMER: auCDtect Task Manager, ver. 1.6.0 RC1 build 1.6.0.1
Copyright (c) 2008-2010 y-soft. All rights reserved
http://y-soft.org
ANALYZER: auCDtect: CD records authenticity detector, version 0.8.2
Copyright (c) 2004 Oleg Berngardt. All rights reserved.
Copyright (c) 2004 Alexander Djourik. All rights reserved.
FILE: 23. I Am (Stripped).flac
  Size: 25667506 Hash: 3F226F1BB3EA74A754E8FA25C7B7805B Accuracy: -m0
  Conclusion: CDDA 100%
  Signature: 9FCCC05717CAF09DFEFEBFAEF43CAF6CF8100122
FILE: 22. Stronger Than Ever.flac
  Size: 31250770 Hash: 39F0E697EAD078A1EE046B08A29DF40E Accuracy: -m0
  Conclusion: CDDA 100%
  Signature: F23E5F50AF03F1E5DB13BB7072AF47CB34117884
FILE: 21. Birds Of Prey.flac
  Size: 32449972 Hash: EE61AD77750F0B19C274F92B1AD1BF45 Accuracy: -m0
  Conclusion: CDDA 100%
  Signature: 160123E1FA0C448508F71CB9F9A9407D917DDE0A
FILE: 20. Bobblehead.flac
  Size: 23316128 Hash: 97EE8E3C0E5D6798403985315CD92A2B Accuracy: -m0
  Conclusion: CDDA 100%
  Signature: C7F994AADAA0446D7F440FB59734AF591E48812A
FILE: 19. Monday Morning.flac
  Size: 30947334 Hash: 0ED45FB8E8C313AD9B85ABC7D512D108 Accuracy: -m0
  Conclusion: CDDA 100%
  Signature: 30609427B5974026AE98272AEE1E3CEF4F725774
FILE: 18. Vanity.flac
  Size: 31890676 Hash: B800353C7659394D22992F4E1EF71027 Accuracy: -m0
  Conclusion: CDDA 100%
  Signature: C7FE9BAEAA112D8E8BFEE5A2500D488026B6DD32
FILE: 17. My Girls (Feat. Peaches).flac
  Size: 25584571 Hash: B54A7CB6A64BA9328992177438F7A70F Accuracy: -m0
  Conclusion: CDDA 100%
  Signature: 814AAE43FBC7F8231DF6375555A126535FD211B9
FILE: 16. I Hate Boys.flac
  Size: 17955202 Hash: 3CFFA4448C080D3FBF5B6A0226A9E347 Accuracy: -m0
  Conclusion: CDDA 100%
  Signature: B5A0FDA4595E866ACA0ED654B4E02D07A6CC44BB
FILE: 15. You Lost Me.flac
  Size: 27268393 Hash: 7A5DB2C4C246C6F7F5D5E6F0FD26AF2D Accuracy: -m0
  Conclusion: CDDA 99%
  Signature: A5C7CE3829679E733D6E7F0750BDB22B5F91CD72
FILE: 14. I Am.flac
  Size: 26415598 Hash: 05644D465BAD6D921EB429E49624416B Accuracy: -m0
  Conclusion: CDDA 100%
  Signature: C5A93A691E3333BAB1579E6D29FC060DB88B74E6
FILE: 13. All I Need.flac
  Size: 22975267 Hash: 38EF3C5871712D350D96AC033052C8E5 Accuracy: -m0
  Conclusion: CDDA 100%
  Signature: D21A08B49EC0548E6C544064BCFC848E6F9A35BB
FILE: 12. My Heart (Intro).flac
  Size: 1188906 Hash: F751604303E94FEED2C0412691EA26A3 Accuracy: -m0
  Conclusion: CDDA 100%
  Signature: CDE9693190A01FDE997AD9F2D81BFD368663267C
FILE: 11. Lift Me Up.flac
  Size: 29986038 Hash: 10A272B1DF1C6982F51BF8D356AA90B1 Accuracy: -m0
  Conclusion: CDDA 100%
  Signature: 5B54D873DE21AF3C0B90032BEEDDDA4C9A06BCF8
FILE: 10. Sex For Breakfast.flac
  Size: 33096065 Hash: 44EE7C710A734C87FE4C3DDF87F0C440 Accuracy: -m0
  Conclusion: CDDA 100%
  Signature: FC335898EBA9AD474B84604077E41380D9C5FDA7
FILE: 09. Morning Dessert (Intro).flac
  Size: 10428272 Hash: 740A388AC786D35E0260A42819345CCA Accuracy: -m0
  Conclusion: CDDA 99%
  Signature: E6ABB68A86B4E6D921F70CFAD0AF7C0225AE92C7
FILE: 08. Prima Donna.flac
  Size: 25699918 Hash: 55485DA3A5094B53893C93E7EFFA0894 Accuracy: -m0
  Conclusion: CDDA 99%
  Signature: 1108513C97DEEE8323D893B64B2F4459D884B635
FILE: 07. Glam.flac
  Size: 25618787 Hash: AA3B5C1AE978BED8019BD5B3FECCE5A8 Accuracy: -m0
  Conclusion: CDDA 100%
  Signature: 175F696FBF960861C30E3F2E27DB66C2C59E72C6
FILE: 06. Love & Glamour (Intro).flac
  Size: 1166539 Hash: 2B48122AC9FC8947625CDB376AF6680C Accuracy: -m0
  Conclusion: CDDA 43%
  Signature: EE8C3B801A5832B9E36CB8B5288F8DC8F3A12EB8
FILE: 05. Desnudate.flac
  Size: 34182685 Hash: 96FA8238C8B3D1B06CF8819B3CBCDB81 Accuracy: -m0
  Conclusion: CDDA 100%
  Signature: C32CACF8DECA1D6729EAB0916B9435AD8F4C255F
FILE: 04. Elastic Love.flac
  Size: 26525989 Hash: C538FF2A60E9B11C8A4AD225732A70E8 Accuracy: -m0
  Conclusion: CDDA 100%
  Signature: B2016D6523A35F5AB318D08C815C72B3FC92FEA8
FILE: 03. Woohoo (Feat. Nicki Minaj).flac
  Size: 41342704 Hash: 04F58AD11093A2E7E2210D104C9EA64B Accuracy: -m0
  Conclusion: CDDA 100%
  Signature: 99A169506957FF3D04057C3B28B5DE17B079CF9B
FILE: 02. Not Myself Tonight.flac
  Size: 23733163 Hash: 6471AD1B44DD7A4097440C85995FFF73 Accuracy: -m0
  Conclusion: CDDA 100%
  Signature: 1413ED502ADF86AB578FFB01DADE493FCFE7DCF1
FILE: 01. Bionic.flac
  Size: 28448096 Hash: D0CB277475E19DE93FFCD3DEAD9F09E8 Accuracy: -m0
  Conclusion: CDDA 100%
  Signature: 6A364B391156157E070507F4F0EB1740529A22B3

Содержание индексной карты (.CUE&#41;

REM GENRE Pop
REM DATE 2010
PERFORMER "Christina Aguilera"
TITLE "Bionic (Deluxe Version)"
FILE "01. Bionic.flac" WAVE
  TRACK 01 AUDIO
    TITLE "Bionic"
    INDEX 01 00:00:00
FILE "02. Not Myself Tonight.flac" WAVE
  TRACK 02 AUDIO
    TITLE "Not Myself Tonight"
    INDEX 01 00:00:00
FILE "03. Woohoo (Feat. Nicki Minaj).flac" WAVE
  TRACK 03 AUDIO
    TITLE "Woohoo (feat. Nicki Minaj)"
    INDEX 01 00:00:00
FILE "04. Elastic Love.flac" WAVE
  TRACK 04 AUDIO
    TITLE "Elastic Love"
    INDEX 01 00:00:00
FILE "05. Desnudate.flac" WAVE
  TRACK 05 AUDIO
    TITLE "Desnudate"
    INDEX 01 00:00:00
FILE "06. Love & Glamour (Intro).flac" WAVE
  TRACK 06 AUDIO
    TITLE "Love & Glamour (Intro)"
    INDEX 01 00:00:00
FILE "07. Glam.flac" WAVE
  TRACK 07 AUDIO
    TITLE "Glam"
    INDEX 01 00:00:00
FILE "08. Prima Donna.flac" WAVE
  TRACK 08 AUDIO
    TITLE "Prima Donna"
    INDEX 01 00:00:00
FILE "09. Morning Dessert (Intro).flac" WAVE
  TRACK 09 AUDIO
    TITLE "Morning Dessert (Intro)"
    INDEX 01 00:00:00
FILE "10. Sex For Breakfast.flac" WAVE
  TRACK 10 AUDIO
    TITLE "Sex for Breakfast"
    INDEX 01 00:00:00
FILE "11. Lift Me Up.flac" WAVE
  TRACK 11 AUDIO
    TITLE "Lift Me Up"
    INDEX 01 00:00:00
FILE "12. My Heart (Intro).flac" WAVE
  TRACK 12 AUDIO
    TITLE "My Heart (Intro)"
    INDEX 01 00:00:00
FILE "13. All I Need.flac" WAVE
  TRACK 13 AUDIO
    TITLE "All I Need"
    INDEX 01 00:00:00
FILE "14. I Am.flac" WAVE
  TRACK 14 AUDIO
    TITLE "I Am"
    INDEX 01 00:00:00
FILE "15. You Lost Me.flac" WAVE
  TRACK 15 AUDIO
    TITLE "You Lost Me"
    INDEX 01 00:00:00
FILE "16. I Hate Boys.flac" WAVE
  TRACK 16 AUDIO
    TITLE "I Hate Boys"
    INDEX 01 00:00:00
FILE "17. My Girls (Feat. Peaches).flac" WAVE
  TRACK 17 AUDIO
    TITLE "My Girls (feat. Peaches)"
    INDEX 01 00:00:00
FILE "18. Vanity.flac" WAVE
  TRACK 18 AUDIO
    TITLE "Vanity"
    INDEX 01 00:00:00
FILE "19. Monday Morning.flac" WAVE
  TRACK 19 AUDIO
    TITLE "Monday Morning"
    INDEX 01 00:00:00
FILE "20. Bobblehead.flac" WAVE
  TRACK 20 AUDIO
    TITLE "Bobblehead"
    INDEX 01 00:00:00
FILE "21. Birds Of Prey.flac" WAVE
  TRACK 21 AUDIO
    TITLE "Birds of Prey"
    INDEX 01 00:00:00
FILE "22. Stronger Than Ever.flac" WAVE
  TRACK 22 AUDIO
    TITLE "Stronger than Ever"
    INDEX 01 00:00:00
FILE "23. I Am (Stripped).flac" WAVE
  TRACK 23 AUDIO
    TITLE "I Am (Stripped)"
    INDEX 01 00:00:00
-
Яндекс.Метрика
Рейтинг@Mail.ru