[ Сегодня на трекере фрилич! Идет свободное скачивание без начисления Download ]

Ace Of Base - Greatest Hits (2008) [APE|Lossless]<Eurodance>

 

Создавать темы 17-Дек-2014 11:57

-Ace Of Base - Greatest Hits (2008)- Год: 2008
Жанр: Eurodance
Продолжительность: 02:20:34
Кодек: APE
Битрейт: Lossless
Наличие сканов в содержимом раздачи: да
Тип раздачи: image+.cue
Страна-производитель диска: Russia
Формат: 2 x CD, Compilation, Unofficial Release, Digipak
Издатель (лейбл): Star Mark
Номер по каталогу: 16438-1/2-Ace of Base — шведская поп-группа, состоящая из Йонаса Берггрена (автор текстов песен и музыки, гитара, синтезатор, вокал), Дженни Берггрен (автор текстов песен и музыки, вокал), Ульфа Экберга (автор текстов песен и музыки, синтезатор, вокал) и ранее из Линн Берггрен (автор текстов песен и музыки, вокал). Как и многие другие шведские музыканты, они исполняют свои песни на английском языке. Группа выпустила свой дебютный альбом в 1993 году и продолжала достигать успеха в музыке в течение 1990-х годов.-

Треклист&#58;

CD1
Прoдолжительность: 01:09:46
Треклист:
01. Happy Nation (4:17)
02. All That She Wants (3:34)
03. The Sign (3:12)
04. Wheel Of Fortune (3:56)
05. Living In Danger (3:45)
06. Don't Turn Around (3:52)
07. Young And Proud (3:59)
08. Voulez - Vous Danser (3:21)
09. Waiting For Magic (3:54)
10. Fashion Party (4:13)
11. Beautiful Life (3:41)
12. My Mind (4:12)
13. Dancer In A Daydream (3:41)
14. Hear Me Calling (3:53)
15. Cruel Summer (3:35)
16. Lucky Love (2:55)
17. Hallo Hallo (2:51)
18. Never Gonna Say I'm Sorry (3:16)
19. Blooming (3:39)

Отчёт ЕАС

CUERipper v2.0.9 Copyright (C) 2008-10 Gregory S. Chudov
EAC extraction logfile from 23. June 2010, 22:24
Ace Of Base / Greatest Hits CD1
Used drive  : PIONEER DVD-RW  DVR-112D   Adapter: 1  ID: 0
Read mode               : Secure
Utilize accurate stream : Yes
Defeat audio cache      : Yes
Make use of C2 pointers : No
Read offset correction                      : 48
Overread into Lead-In and Lead-Out          : No
Fill up missing offset samples with silence : Yes
Delete leading and trailing silent blocks   : No
Null samples used in CRC calculations       : Yes
Used interface                              : Native Win32 interface for Win NT & 2000
Used output format : Internal WAV Routines
Sample format      : 44.100 Hz; 16 Bit; Stereo
TOC of the extracted CD
     Track |   Start  |  Length  | Start sector | End sector
    ---------------------------------------------------------
        1  |  0:00.00 |  4:17.00 |         0    |    19274
        2  |  4:17.00 |  3:34.15 |     19275    |    35339
        3  |  7:51.15 |  3:12.32 |     35340    |    49771
        4  | 11:03.47 |  3:56.03 |     49772    |    67474
        5  | 14:59.50 |  3:44.68 |     67475    |    84342
        6  | 18:44.43 |  3:51.45 |     84343    |   101712
        7  | 22:36.13 |  3:58.45 |    101713    |   119607
        8  | 26:34.58 |  3:20.57 |    119608    |   134664
        9  | 29:55.40 |  3:54.20 |    134665    |   152234
       10  | 33:49.60 |  4:13.37 |    152235    |   171246
       11  | 38:03.22 |  3:41.10 |    171247    |   187831
       12  | 41:44.32 |  4:12.32 |    187832    |   206763
       13  | 45:56.64 |  3:41.10 |    206764    |   223348
       14  | 49:37.74 |  3:52.38 |    223349    |   240786
       15  | 53:30.37 |  3:35.15 |    240787    |   256926
       16  | 57:05.52 |  2:54.65 |    256927    |   270041
       17  | 60:00.42 |  2:50.54 |    270042    |   282845
       18  | 62:51.21 |  3:16.10 |    282846    |   297555
       19  | 66:07.31 |  3:38.45 |    297556    |   313950
Range status and errors
Selected range
     Filename C:\Ace Of Base\2008 - Greatest Hits CD1\Ace Of Base - Greatest Hits CD1.wav
     Peak level 100.0 %
     Range quality 100.0 %
     Test CRC 138109F6
     Copy CRC 138109F6
     Copy OK
No errors occurred
AccurateRip summary
Track  1  not present in database
Track  2  not present in database
Track  3  not present in database
Track  4  not present in database
Track  5  not present in database
Track  6  not present in database
Track  7  not present in database
Track  8  not present in database
Track  9  not present in database
Track 10  not present in database
Track 11  not present in database
Track 12  not present in database
Track 13  not present in database
Track 14  not present in database
Track 15  not present in database
Track 16  not present in database
Track 17  not present in database
Track 18  not present in database
Track 19  not present in database
None of the tracks are present in the AccurateRip database
End of status report

Отчёт auCDtect Task manager

-----------------------
DON'T MODIFY THIS FILE
-----------------------
PERFORMER: auCDtect Task Manager, ver. 1.6.0 RC1 build 1.6.0.1
Copyright (c) 2008-2010 y-soft. All rights reserved
http://y-soft.org
ANALYZER: auCDtect: CD records authenticity detector, version 0.8.2
Copyright (c) 2004 Oleg Berngardt. All rights reserved.
Copyright (c) 2004 Alexander Djourik. All rights reserved.
FILE: Ace Of Base - Greatest Hits CD1.ape
  Size: 513821488 Hash: 4289EBE2E0734EAD4374EEB902A96986 Accuracy: -m0
  Conclusion: CDDA 99%
  Signature: B98F0A936F60A7E9E8CBE9CE8ABFC96D31CD5E77

Содержание индексной карты (.CUE&#41;

REM ACCURATERIPID 0031116f-02acd05c-2b105a13
REM DISCID 2B105A13
REM COMMENT "ExactAudioCopy v0.99pb4"
REM DISCNUMBER 1
REM DATE 2008
REM GENRE "Pop"
PERFORMER "Ace Of Base"
TITLE "Greatest Hits CD1"
FILE "Ace Of Base - Greatest Hits CD1.ape" WAVE
  TRACK 01 AUDIO
    TITLE "Happy Nation"
    PERFORMER "Ace Of Base"
    FLAGS DCP
    INDEX 01 00:00:00
  TRACK 02 AUDIO
    TITLE "All That She Wants"
    PERFORMER "Ace Of Base"
    FLAGS DCP
    INDEX 01 04:17:00
  TRACK 03 AUDIO
    TITLE "The Sign"
    PERFORMER "Ace Of Base"
    FLAGS DCP
    INDEX 01 07:51:15
  TRACK 04 AUDIO
    TITLE "Wheel Of Fortune"
    PERFORMER "Ace Of Base"
    FLAGS DCP
    INDEX 01 11:03:47
  TRACK 05 AUDIO
    TITLE "Living In Danger"
    PERFORMER "Ace Of Base"
    FLAGS DCP
    INDEX 01 14:59:50
  TRACK 06 AUDIO
    TITLE "Don't Turn Around"
    PERFORMER "Ace Of Base"
    FLAGS DCP
    INDEX 01 18:44:43
  TRACK 07 AUDIO
    TITLE "Young And Proud"
    PERFORMER "Ace Of Base"
    FLAGS DCP
    INDEX 01 22:36:13
  TRACK 08 AUDIO
    TITLE "Voulez - Vous Danser"
    PERFORMER "Ace Of Base"
    FLAGS DCP
    INDEX 01 26:34:58
  TRACK 09 AUDIO
    TITLE "Waiting For Magic"
    PERFORMER "Ace Of Base"
    FLAGS DCP
    INDEX 01 29:55:40
  TRACK 10 AUDIO
    TITLE "Fashion Party"
    PERFORMER "Ace Of Base"
    FLAGS DCP
    INDEX 01 33:49:60
  TRACK 11 AUDIO
    TITLE "Beautiful Life"
    PERFORMER "Ace Of Base"
    FLAGS DCP
    INDEX 01 38:03:22
  TRACK 12 AUDIO
    TITLE "My Mind"
    PERFORMER "Ace Of Base"
    FLAGS DCP
    INDEX 01 41:44:32
  TRACK 13 AUDIO
    TITLE "Dancer In A Daydream"
    PERFORMER "Ace Of Base"
    FLAGS DCP
    INDEX 01 45:56:64
  TRACK 14 AUDIO
    TITLE "Hear Me Calling"
    PERFORMER "Ace Of Base"
    FLAGS DCP
    INDEX 01 49:37:74
  TRACK 15 AUDIO
    TITLE "Cruel Summer"
    PERFORMER "Ace Of Base"
    FLAGS DCP
    INDEX 01 53:30:37
  TRACK 16 AUDIO
    TITLE "Lucky Love"
    PERFORMER "Ace Of Base"
    FLAGS DCP
    INDEX 01 57:05:52
  TRACK 17 AUDIO
    TITLE "Hallo Hallo"
    PERFORMER "Ace Of Base"
    FLAGS DCP
    INDEX 01 60:00:42
  TRACK 18 AUDIO
    TITLE "Never Gonna Say I'm Sorry"
    PERFORMER "Ace Of Base"
    FLAGS DCP
    INDEX 01 62:51:21
  TRACK 19 AUDIO
    TITLE "Blooming"
    PERFORMER "Ace Of Base"
    FLAGS DCP
    INDEX 01 66:07:31
-CD2
Прoдолжительность: 01:10:48
Треклист:
01. Life Is A Flower (3:47)
02. He Decides (3:10)
03. My Deja Vu (3:21)
04. Just 'n' Image (3:09)
05. I Pray (3:18)
06. Adventures In Paradise (3:32)
07. Always Have Always Will (3:46)
08. C`Est La Vie Always (3:27)
09. Cecilia (3:56)
10. Donnie (4:40)
11. Dr Sun (3:36)
12. Love In December (3:59)
13. Tokyo Girl (3:36)
14. Travel To Romantis (4:10)
15. You And I (4:08)
16. Don't Go Away (3:41)
17. Edge Of Heaven (3:51)
18. Everytime It Rains (3:53)
19. Que Sera (3:47)

Отчёт ЕАС

CUERipper v2.0.9 Copyright (C) 2008-10 Gregory S. Chudov
EAC extraction logfile from 23. June 2010, 22:36
Ace Of Base / Greatest Hits CD2
Used drive  : PIONEER DVD-RW  DVR-112D   Adapter: 1  ID: 0
Read mode               : Secure
Utilize accurate stream : Yes
Defeat audio cache      : Yes
Make use of C2 pointers : No
Read offset correction                      : 48
Overread into Lead-In and Lead-Out          : No
Fill up missing offset samples with silence : Yes
Delete leading and trailing silent blocks   : No
Null samples used in CRC calculations       : Yes
Used interface                              : Native Win32 interface for Win NT & 2000
Used output format : Internal WAV Routines
Sample format      : 44.100 Hz; 16 Bit; Stereo
TOC of the extracted CD
     Track |   Start  |  Length  | Start sector | End sector
    ---------------------------------------------------------
        1  |  0:00.00 |  3:47.30 |         0    |    17054
        2  |  3:47.30 |  3:09.52 |     17055    |    31281
        3  |  6:57.07 |  3:21.25 |     31282    |    46381
        4  | 10:18.32 |  3:09.05 |     46382    |    60561
        5  | 13:27.37 |  3:18.28 |     60562    |    75439
        6  | 16:45.65 |  3:32.08 |     75440    |    91347
        7  | 20:17.73 |  3:46.27 |     91348    |   108324
        8  | 24:04.25 |  3:26.43 |    108325    |   123817
        9  | 27:30.68 |  3:55.65 |    123818    |   141507
       10  | 31:26.58 |  4:39.45 |    141508    |   162477
       11  | 36:06.28 |  3:35.60 |    162478    |   178662
       12  | 39:42.13 |  3:58.56 |    178663    |   196568
       13  | 43:40.69 |  3:36.27 |    196569    |   212795
       14  | 47:17.21 |  4:10.25 |    212796    |   231570
       15  | 51:27.46 |  4:08.00 |    231571    |   250170
       16  | 55:35.46 |  3:41.23 |    250171    |   266768
       17  | 59:16.69 |  3:50.50 |    266769    |   284068
       18  | 63:07.44 |  3:52.73 |    284069    |   301541
       19  | 67:00.42 |  3:47.30 |    301542    |   318596
Range status and errors
Selected range
     Filename C:\Ace Of Base\2008 - Greatest Hits CD2\Ace Of Base - Greatest Hits CD2.wav
     Peak level 100.0 %
     Range quality 100.0 %
     Test CRC 991AA109
     Copy CRC 991AA109
     Copy OK
No errors occurred
AccurateRip summary
Track  1  not present in database
Track  2  not present in database
Track  3  not present in database
Track  4  not present in database
Track  5  not present in database
Track  6  not present in database
Track  7  not present in database
Track  8  not present in database
Track  9  not present in database
Track 10  not present in database
Track 11  not present in database
Track 12  not present in database
Track 13  not present in database
Track 14  not present in database
Track 15  not present in database
Track 16  not present in database
Track 17  not present in database
Track 18  not present in database
Track 19  not present in database
None of the tracks are present in the AccurateRip database
End of status report

Отчёт auCDtect Task manager

-----------------------
DON'T MODIFY THIS FILE
-----------------------
PERFORMER: auCDtect Task Manager, ver. 1.6.0 RC1 build 1.6.0.1
Copyright (c) 2008-2010 y-soft. All rights reserved
http://y-soft.org
ANALYZER: auCDtect: CD records authenticity detector, version 0.8.2
Copyright (c) 2004 Oleg Berngardt. All rights reserved.
Copyright (c) 2004 Alexander Djourik. All rights reserved.
FILE: Ace Of Base - Greatest Hits CD2.ape
  Size: 535258572 Hash: 86C1984F89607883D4D4C443A16E8CA1 Accuracy: -m0
  Conclusion: CDDA 100%
  Signature: 965575936D21A9FE913F7D65299C49E3C9316A21

Содержание индексной карты (.CUE&#41;

REM ACCURATERIPID 002f4941-029c4636-22109713
REM DISCID 22109713
REM COMMENT "ExactAudioCopy v0.99pb4"
REM DISCNUMBER 2
REM DATE 2008
REM GENRE "Pop"
PERFORMER "Ace Of Base"
TITLE "Greatest Hits CD2"
FILE "Ace Of Base - Greatest Hits CD2.ape" WAVE
  TRACK 01 AUDIO
    TITLE "Life Is A Flower"
    PERFORMER "Ace Of Base"
    FLAGS DCP
    INDEX 01 00:00:00
  TRACK 02 AUDIO
    TITLE "He Decides"
    PERFORMER "Ace Of Base"
    FLAGS DCP
    INDEX 01 03:47:30
  TRACK 03 AUDIO
    TITLE "My Deja Vu"
    PERFORMER "Ace Of Base"
    FLAGS DCP
    INDEX 01 06:57:07
  TRACK 04 AUDIO
    TITLE "Just 'n' Image"
    PERFORMER "Ace Of Base"
    FLAGS DCP
    INDEX 01 10:18:32
  TRACK 05 AUDIO
    TITLE "I Pray "
    PERFORMER "Ace Of Base"
    FLAGS DCP
    INDEX 01 13:27:37
  TRACK 06 AUDIO
    TITLE "Adventures In Paradise"
    PERFORMER "Ace Of Base"
    FLAGS DCP
    INDEX 01 16:45:65
  TRACK 07 AUDIO
    TITLE "Always Have Always Will"
    PERFORMER "Ace Of Base"
    FLAGS DCP
    INDEX 01 20:17:73
  TRACK 08 AUDIO
    TITLE "C`Est La Vie Always"
    PERFORMER "Ace Of Base"
    FLAGS DCP
    INDEX 01 24:04:25
  TRACK 09 AUDIO
    TITLE "Cecilia"
    PERFORMER "Ace Of Base"
    FLAGS DCP
    INDEX 01 27:30:68
  TRACK 10 AUDIO
    TITLE "Donnie"
    PERFORMER "Ace Of Base"
    FLAGS DCP
    INDEX 01 31:26:58
  TRACK 11 AUDIO
    TITLE "Dr Sun"
    PERFORMER "Ace Of Base"
    FLAGS DCP
    INDEX 01 36:06:28
  TRACK 12 AUDIO
    TITLE "Love In December"
    PERFORMER "Ace Of Base"
    FLAGS DCP
    INDEX 01 39:42:13
  TRACK 13 AUDIO
    TITLE "Tokyo Girl"
    PERFORMER "Ace Of Base"
    FLAGS DCP
    INDEX 01 43:40:69
  TRACK 14 AUDIO
    TITLE "Travel To Romantis"
    PERFORMER "Ace Of Base"
    FLAGS DCP
    INDEX 01 47:17:21
  TRACK 15 AUDIO
    TITLE "You And I"
    PERFORMER "Ace Of Base"
    FLAGS DCP
    INDEX 01 51:27:46
  TRACK 16 AUDIO
    TITLE "Don't Go Away"
    PERFORMER "Ace Of Base"
    FLAGS DCP
    INDEX 01 55:35:46
  TRACK 17 AUDIO
    TITLE "Edge Of Heaven"
    PERFORMER "Ace Of Base"
    FLAGS DCP
    INDEX 01 59:16:69
  TRACK 18 AUDIO
    TITLE "Everytime It Rains"
    PERFORMER "Ace Of Base"
    FLAGS DCP
    INDEX 01 63:07:44
  TRACK 19 AUDIO
    TITLE "Que Sera"
    PERFORMER "Ace Of Base"
    FLAGS DCP
    INDEX 01 67:00:42
-
Яндекс.Метрика
Рейтинг@Mail.ru