[ Сегодня на трекере фрилич! Идет свободное скачивание без начисления Download ]

DJ BOBO - Greatest Hits (2006) [FLAC|Lossless]<EuroDance/EuroPop>

 

Создавать темы 17-Дек-2014 11:57

-DJ BOBO - Greatest Hits (2006)- Год: 2006
Жанр: EuroDance/EuroPop
Продолжительность: 01:11:55
Кодек: FLAC
Битрейт: Lossless
Тип битрейта: CBR
Трек лист:
01 Secrets Of Love (with Sandra)
02 Freedom
03 Everybody
04 What A Feeling
05 I Believe
06 Theres A Party
07 Pirates Of Dance
08 Pray
09 Chihuahua
10 Love Is The Price
11 Let The Dream Come True
12 Games People Play (New)
13 Amazing Life
14 Somebody Dance With Me
15 Respect Yourself
16 Feels Like Heaven (New)
17 Together
18 Its My Life
19 Where Is Your Love
20 Shadows Of The Night
-

Лог Audiochecker&#58;

AUDIOCHECKER v2.0 beta (build 457)
~~~~~~~~~~~~~~~~~~~~~~~~~~~~~~~~~~
-=== DO NOT EDIT THIS FILE! ===-
Path: ...\DJ BoBo - Greatest Hits (2006)
1 -=- DJ BoBo - Greatest Hits.flac -=- CDDA (100%)

Отчет EAC&#58;

Exact Audio Copy V0.99 prebeta 4 from 23. January 2008
Отчёт EAC об извлечении, выполненном 1. мая 2009, 8:02
DJ BoBo / Greatest Hits
Дисковод: ATAPI DVD A DH20A4H Adapter: 0 ID: 0
Режим чтения : Достоверность
Использование точного потока : Да
Отключение кэша аудио : Да
Использование указателей C2 : Нет
Коррекция смещения при чтении : 6
Способность читать области Lead-in и Lead-out : Нет
Заполнение пропущенных сэмплов тишиной : Да
Удаление блоков с тишиной в начале и конце : Нет
При вычислениях CRC использовались нулевые сэмплы : Да
Интерфейс : Установленный внешний ASPI-интерфейс
Выходной формат : Внутренние WAV-операции
Формат сэмплов : 44.100 Гц; 16 бит; стерео
TOC извлечённого CD
Трек | Старт | Длительность | Начальный сектор | Конечный сектор
---------------------------------------------------------------------
1 | 0:00.00 | 3:19.42 | 0 | 14966
2 | 3:19.42 | 3:55.43 | 14967 | 32634
3 | 7:15.10 | 3:49.67 | 32635 | 49876
4 | 11:05.02 | 3:19.50 | 49877 | 64851
5 | 14:24.52 | 3:40.43 | 64852 | 81394
6 | 18:05.20 | 4:12.07 | 81395 | 100301
7 | 22:17.27 | 3:15.70 | 100302 | 114996
8 | 25:33.22 | 3:52.25 | 114997 | 132421
9 | 29:25.47 | 3:00.20 | 132422 | 145941
10 | 32:25.67 | 3:32.40 | 145942 | 161881
11 | 35:58.32 | 4:01.40 | 161882 | 179996
12 | 39:59.72 | 2:55.15 | 179997 | 193136
13 | 42:55.12 | 3:28.00 | 193137 | 208736
14 | 46:23.12 | 3:32.60 | 208737 | 224696
15 | 49:55.72 | 3:58.20 | 224697 | 242566
16 | 53:54.17 | 3:02.40 | 242567 | 256256
17 | 56:56.57 | 3:41.53 | 256257 | 272884
18 | 60:38.35 | 3:50.57 | 272885 | 290191
19 | 64:29.17 | 3:54.10 | 290192 | 307751
20 | 68:23.27 | 3:31.65 | 307752 | 323641
Характеристики диапазона извлечения и сообщения об ошибках
Выбранный диапазон
Имя файла D:\Temp\Downloads\Torrent Downloads\DJ BoBo - Greatest Hits (2006)\DJ BoBo - Greatest Hits.wav
Пиковый уровень 94.4 %
Качество диапазона 100.0 %
CRC копии C66D50A7
Копирование... OK
Ошибок не произошло
Конец отчёта
-
Яндекс.Метрика
Рейтинг@Mail.ru