[ Сегодня на трекере фрилич! Идет свободное скачивание без начисления Download ]

Visage - The Anvil (1982) [FLAC|Lossless]<synthpop/new romantic>

 

Создавать темы 17-Дек-2014 11:57

-Visage - The Anvil (1982)- Год: 1982
Жанр: synthpop/new romantic
Издание: One Way Records OW 34518 (1997)
Продолжительность: 00:54:22
Кодек: FLAC
Битрейт: Lossless
Тип рипа: image+cue
Трек лист:
1. "The Damned Don't Cry" – 4:43
2. "Anvil (Night Club School)" – 4:39
3. "Move Up" – 4:25
4. "Night Train" – 4:29
5. "The Horseman" – 4:41
6. "Look What They've Done" – 4:49
7. "Again We Love" – 4:44
8. "Wild Life" – 4:24
9. "Whispers" – 5:39
Bonus tracks:
10. "We Move (Dance Mix)" – 6:28
11. "Frequency 7 (Dance Mix)" – 5:02

Коротко об альбоме

Второй альбом Британской поп-группы Visage. Издан как LP в марте 1982г, переиздавался на CD в 1997 и 2008 годах с бонус-треками.
Из музыкантов, записавших первый альбом, отсутствует John McGeoch, находившийся в то время в испанском туре с "Siouxsie and the Banshees".
Этот альбом стал последним проектом Visage, в котором принимал участие фронтмен Ultravox Midge Ure.
В записи альбома принимали участие:
* Steve Strange - vocals
* Midge Ure - guitar, synthesizer, backing vocals
* Billy Currie - electric violin, synthesizer
* Rusty Egan - drums, electronic percussion, backing vocals
* Dave Formula - synthesizer
А также приглашённые музыканты:
* Barry Adamson - bass
* Gary Barnacle - saxophone
* Perry - backing vocals
* Lorraine - backing vocals

Отчёт ЕАС&#58;

Exact Audio Copy V0.99 prebeta 3 from 28. July 2007
Отчёт EAC об извлечении, выполненном 1. октября 2007, 5:53
Visage / The Anvil
Дисковод: ASUS DRW-1608P2S Adapter: 0 ID: 0
Режим чтения : Достоверность
Использование точного потока : Да
Отключение кэша аудио : Да
Использование указателей C2 : Нет
Коррекция смещения при чтении : 48
Способность читать области Lead-in и Lead-out : Нет
Заполнение пропущенных сэмплов тишиной : Да
Удаление блоков с тишиной в начале и конце : Нет
При вычислениях CRC использовались нулевые сэмплы : Нет
Интерфейс : Установленный внешний ASPI-интерфейс
Выходной формат : Внутренние WAV-операции
Формат сэмплов : 44.100 Гц; 16 бит; стерео
TOC извлечённого CD
Трек | Старт | Длительность | Начальный сектор | Конечный сектор
---------------------------------------------------------------------
1 | 0:00.32 | 4:43.33 | 32 | 21289
2 | 4:43.65 | 4:39.52 | 21290 | 42266
3 | 9:23.42 | 4:25.58 | 42267 | 62199
4 | 13:49.25 | 4:32.35 | 62200 | 82634
5 | 18:21.60 | 4:42.70 | 82635 | 103854
6 | 23:04.55 | 4:51.30 | 103855 | 125709
7 | 27:56.10 | 4:45.00 | 125710 | 147084
8 | 32:41.10 | 4:26.62 | 147085 | 167096
9 | 37:07.72 | 5:42.20 | 167097 | 192766
10 | 42:50.17 | 6:29.08 | 192767 | 221949
11 | 49:19.25 | 5:02.30 | 221950 | 244629
Характеристики диапазона извлечения и сообщения об ошибках
Выбранный диапазон
Имя файла C:\Documents and Settings\SSKAIN\Рабочий стол\запись\Visage - The Anvil - 1982\Visage - The Anvil.wav
Пиковый уровень 100.0 %
Качество диапазона 100.0 %
CRC копии 56E93736
Копирование... OK
Ошибок не произошло
Конец отчёта

Отчёт Audiochecker&#58;

AUDIOCHECKER v2.0 beta (build 457) - by Dester - [url=mailto:[email protected]][email protected][/url]
~~~~~~~~~~~~~~~~~~~~~~~~~~~~~~~~~~
-=== DO NOT EDIT THIS FILE! ===-
Path: ...\1982-the Anvil
1 -=- Visage - The Anvil.flac -=- CDDA (100%)
136434372
-
Рейтинг@Mail.ru