Haddaway - All The Best - His Greatest Hits (1999) [APE|Lossless]<EuroDance>

 

Создавать темы 17-Дек-2014 11:57

-Haddaway - All The Best - His Greatest Hits (1999)- Год: 1999
Жанр: EuroDance
Продолжительность: 01:11:48
Кодек: APE
Битрейт: Lossless
Тип раздачи: image+.cue
Наличие сканов в содержимом раздачи: да
Издатель (лейбл): Coconut
Номер по каталогу: 74321 69456 2
Треклист:
01. What Is Love (Original 7'' Mix) (4:30)
02. Life (Radio Edit) (4:16)
03. I Miss You (Radio Edit) (3:39)
04. Rock My Heart (Radio Mix) (4:10)
05. Mama's House (4:04)
06. Fly Away (Radio Edit) (4:05)
07. Stir It Up (4:26)
08. Who Do You Love (Matrix Radio Edit) (3:24)
09. Catch A Fire (Radio Edit) (4:15)
10. What About Me (Radio Version) (4:07)
11. You're Taking My Heart (DJ Stevie Steve's Radio Edit) (3:23)
12. Lover Be Thy Name (3:49)
13. Come Back (Love Has Got A Hold On Me) (3:59)
14. Shout (Album Mix) (4:36)
15. What Is Love (Todd Terry's TNT Radio Edit '99) (3:11)
16. What Is Love (Mosquito Headz Millennium 7'' Remix) (3:47)
17. In The Mix (8:05)

Отчёт ЕАС

Exact Audio Copy V0.99 prebeta 4 from 23. January 2008
Отчёт EAC об извлечении, выполненном 6. июля 2009, 18:30
Haddaway / All The Best
Дисковод: Optiarc DVD RW AD-7200S   Adapter: 1  ID: 1
Режим чтения                 : Достоверность
Использование точного потока : Да
Отключение кэша аудио        : Да
Использование указателей C2  : Нет
Коррекция смещения при чтении                     : 48
Способность читать области Lead-in и Lead-out     : Нет
Заполнение пропущенных сэмплов тишиной            : Да
Удаление блоков с тишиной в начале и конце        : Нет
При вычислениях CRC использовались нулевые сэмплы : Да
Интерфейс                                         : Встроенный Win32-интерфейс для Win NT/2000
Выходной формат : Monkey's Audio Lossless Encoder v3.99 DLL
Формат сэмплов  : Fast Lossless Compression
TOC извлечённого CD
     Трек |   Старт  | Длительность | Начальный сектор | Конечный сектор
    ---------------------------------------------------------------------
       1  |  0:00.32 |    4:29.65   |          32      |      20271
       2  |  4:30.22 |    4:16.35   |       20272      |      39506
       3  |  8:46.57 |    3:39.25   |       39507      |      55956
       4  | 12:26.07 |    4:10.00   |       55957      |      74706
       5  | 16:36.07 |    4:04.25   |       74707      |      93031
       6  | 20:40.32 |    4:05.25   |       93032      |     111431
       7  | 24:45.57 |    4:25.50   |      111432      |     131356
       8  | 29:11.32 |    3:23.55   |      131357      |     146636
       9  | 32:35.12 |    4:14.45   |      146637      |     165731
      10  | 36:49.57 |    4:07.30   |      165732      |     184286
      11  | 40:57.12 |    3:23.10   |      184287      |     199521
      12  | 44:20.22 |    3:49.35   |      199522      |     216731
      13  | 48:09.57 |    3:59.18   |      216732      |     234674
      14  | 52:09.00 |    4:35.57   |      234675      |     255356
      15  | 56:44.57 |    3:10.68   |      255357      |     269674
      16  | 59:55.50 |    3:47.25   |      269675      |     286724
      17  | 63:43.00 |    8:05.32   |      286725      |     323131
Характеристики диапазона извлечения и сообщения об ошибках
Выбранный диапазон
     Имя файла F:\Музыка\торренты\Haddaway_all the best\Haddaway - All The Best.ape
     Пиковый уровень 99.0 %
     Качество диапазона 100.0 %
     CRC теста 2B1FB484
     CRC копии 2B1FB484
     Копирование... OK
Ошибок не произошло
AccurateRip: сводка
Трек  1  точное извлечение (доверие 1)  [5EB12D79]
Трек  2  точное извлечение (доверие 1)  [A224AE09]
Трек  3  точное извлечение (доверие 1)  [EBCFA7D7]
Трек  4  точное извлечение (доверие 1)  [BD6677B1]
Трек  5  точное извлечение (доверие 1)  [D8195D3A]
Трек  6  точное извлечение (доверие 1)  [6B2C34A0]
Трек  7  точное извлечение (доверие 1)  [0DB79C13]
Трек  8  точное извлечение (доверие 1)  [9CE9ADAE]
Трек  9  точное извлечение (доверие 1)  [238E9A8D]
Трек 10  точное извлечение (доверие 1)  [D86CF39F]
Трек 11  точное извлечение (доверие 1)  [67D228EA]
Трек 12  точное извлечение (доверие 1)  [C22DA70D]
Трек 13  точное извлечение (доверие 1)  [00500C4C]
Трек 14  точное извлечение (доверие 1)  [E4F8C31F]
Трек 15  точное извлечение (доверие 1)  [EB8AED83]
Трек 16  точное извлечение (доверие 1)  [9E8912BC]
Трек 17  точное извлечение (доверие 1)  [324C2099]
Все треки извлечены точно
Конец отчёта

Отчёт auCDtect Task manager

-----------------------
DON'T MODIFY THIS FILE
-----------------------
PERFORMER: auCDtect Task Manager, ver. 1.6.0 RC1 build 1.6.0.1
Copyright (c) 2008-2010 y-soft. All rights reserved
http://y-soft.org
ANALYZER: auCDtect: CD records authenticity detector, version 0.8.2
Copyright (c) 2004 Oleg Berngardt. All rights reserved.
Copyright (c) 2004 Alexander Djourik. All rights reserved.
FILE: Haddaway - All The Best.ape
  Size: 551846648 Hash: 1F8D80E77E6953DB8DA0C5620DB2EFAB Accuracy: -m0
  Conclusion: CDDA 100%
  Signature: 23D90AE8EE11ABB25D4D454614016C637C534FBE

Содержание индексной карты (.CUE&#41;

REM GENRE Dance
REM DATE 1999
REM DISCID 0A10D411
REM COMMENT "ExactAudioCopy v0.99pb4"
PERFORMER "Haddaway"
TITLE "All The Best"
FILE "Haddaway - All The Best.ape" WAVE
  TRACK 01 AUDIO
    TITLE "What Is Love (Original 7'' Mix)"
    PERFORMER "Haddaway"
    INDEX 00 00:00:00
    INDEX 01 00:00:32
  TRACK 02 AUDIO
    TITLE "Life (Radio Edit)"
    PERFORMER "Haddaway"
    INDEX 00 04:29:60
    INDEX 01 04:30:22
  TRACK 03 AUDIO
    TITLE "I Miss You (Radio Edit)"
    PERFORMER "Haddaway"
    INDEX 00 08:46:20
    INDEX 01 08:46:57
  TRACK 04 AUDIO
    TITLE "Rock My Heart (Radio Mix)"
    PERFORMER "Haddaway"
    INDEX 00 12:25:07
    INDEX 01 12:26:07
  TRACK 05 AUDIO
    TITLE "Mama's House"
    PERFORMER "Haddaway"
    INDEX 00 16:35:02
    INDEX 01 16:36:07
  TRACK 06 AUDIO
    TITLE "Fly Away (Radio Edit)"
    PERFORMER "Haddaway"
    INDEX 00 20:39:57
    INDEX 01 20:40:32
  TRACK 07 AUDIO
    TITLE "Stir It Up"
    PERFORMER "Haddaway"
    INDEX 00 24:45:00
    INDEX 01 24:45:57
  TRACK 08 AUDIO
    TITLE "Who Do You Love (Matrix Radio Edit)"
    PERFORMER "Haddaway"
    INDEX 00 29:11:07
    INDEX 01 29:11:32
  TRACK 09 AUDIO
    TITLE "Catch A Fire (Radio Edit)"
    PERFORMER "Haddaway"
    INDEX 00 32:34:22
    INDEX 01 32:35:12
  TRACK 10 AUDIO
    TITLE "What About Me (Radio Version)"
    PERFORMER "Haddaway"
    INDEX 00 36:49:47
    INDEX 01 36:49:57
  TRACK 11 AUDIO
    TITLE "You're Taking My Heart (DJ Stevie Steve's Radio Edit)"
    PERFORMER "Haddaway"
    INDEX 00 40:56:22
    INDEX 01 40:57:12
  TRACK 12 AUDIO
    TITLE "Lover Be Thy Name"
    PERFORMER "Haddaway"
    INDEX 00 44:19:72
    INDEX 01 44:20:22
  TRACK 13 AUDIO
    TITLE "Come Back (Love Has Got A Hold On Me)"
    PERFORMER "Haddaway"
    INDEX 00 48:08:67
    INDEX 01 48:09:57
  TRACK 14 AUDIO
    TITLE "Shout (Album Mix)"
    PERFORMER "Haddaway"
    INDEX 00 52:08:37
    INDEX 01 52:09:00
  TRACK 15 AUDIO
    TITLE "What Is Love (Todd Terry's TNT Radio Edit '99)"
    PERFORMER "Haddaway"
    INDEX 00 56:44:15
    INDEX 01 56:44:57
  TRACK 16 AUDIO
    TITLE "What Is Love (Mosquito Headz Millennium 7'' Remix)"
    PERFORMER "Haddaway"
    INDEX 00 59:55:00
    INDEX 01 59:55:50
  TRACK 17 AUDIO
    TITLE "In The Mix"
    PERFORMER "Haddaway"
    INDEX 00 63:42:62
    INDEX 01 63:43:00
-
Яндекс.Метрика
Рейтинг@Mail.ru