Pet Shop Boys - Ultimate Pet Shop Boys (2010) [APE|Lossless]<Synthpop>

 

Создавать темы 17-Дек-2014 11:57

-Pet Shop Boys - Ultimate Pet Shop Boys (2010)- Год: 2010
Издание: EMI LC 0299
Жанр: Synthpop
Продолжительность: 01:19:02
Кодек: APE
Тип рипа: Image+.cue
Битрейт: Lossless
Треклист:
01. West End Girls :: 4:05
02. Suburbia :: 4:02
03. It's A Sin :: 5:00
04. What Have I Done To Deserve This? :: 4:20
05. Always On My Mind :: 3:58
06. Heart :: 4:17
07. Domino Dancing :: 4:18
08. Left To My Own Devices :: 4:45
09. Being Boring :: 4:51
10. Where The Streets Have No Name :: 4:32
11. Go West :: 5:02
12. Before :: 4:06
13. Se A Vida E :: 4:01
14. New York City Boy :: 3:20
15. Home and Dry :: 3:58
16. Miracles :: 3:55
17. I'm With Stupid :: 3:27
18. Love Etc. :: 3:32
19. Together :: 3:30

Отчёт ЕАС&#58;

Exact Audio Copy V0.99 prebeta 4 from 23. January 2008
EAC extraction logfile from 10. November 2010, 15:46
Excalion / Ultimate Pet Shop Boys
Used drive  : TEAC    DV-W516GB   Adapter: 1  ID: 1
Read mode               : Secure
Utilize accurate stream : Yes
Defeat audio cache      : Yes
Make use of C2 pointers : No
Read offset correction                      : 12
Overread into Lead-In and Lead-Out          : No
Fill up missing offset samples with silence : Yes
Delete leading and trailing silent blocks   : No
Null samples used in CRC calculations       : Yes
Used interface                              : Installed external ASPI interface
Used output format              : Monkey's Audio Lossless Encoder
Selected bitrate                : High Lossless Compression
Quality                         : High
Add ID3 tag                     : Yes
Command line compressor         : C:\Program Files\Monkey's Audio\MAC.exe
TOC of the extracted CD
     Track |   Start  |  Length  | Start sector | End sector
    ---------------------------------------------------------
        1  |  0:00.00 |  4:05.27 |         0    |    18401
        2  |  4:05.27 |  4:01.48 |     18402    |    36524
        3  |  8:07.00 |  5:00.22 |     36525    |    59046
        4  | 13:07.22 |  4:20.31 |     59047    |    78577
        5  | 17:27.53 |  3:57.49 |     78578    |    96401
        6  | 21:25.27 |  4:17.16 |     96402    |   115692
        7  | 25:42.43 |  4:18.08 |    115693    |   135050
        8  | 30:00.51 |  4:45.10 |    135051    |   156435
        9  | 34:45.61 |  4:51.19 |    156436    |   178279
       10  | 39:37.05 |  4:32.28 |    178280    |   198707
       11  | 44:09.33 |  5:02.27 |    198708    |   221384
       12  | 49:11.60 |  4:05.47 |    221385    |   239806
       13  | 53:17.32 |  4:01.11 |    239807    |   257892
       14  | 57:18.43 |  3:20.22 |    257893    |   272914
       15  | 60:38.65 |  3:58.34 |    272915    |   290798
       16  | 64:37.24 |  3:55.34 |    290799    |   308457
       17  | 68:32.58 |  3:27.02 |    308458    |   323984
       18  | 71:59.60 |  3:31.68 |    323985    |   339877
       19  | 75:31.53 |  3:30.27 |    339878    |   355654
Range status and errors
Selected range
     Filename E:\Files\Музон\Pet Shop Boys - Ultimate Pet Shop Boys.wav
     Peak level 99.7 %
     Range quality 99.9 %
     Copy CRC 379FEC1B
     Copy OK
No errors occurred
End of status report

Отчёт Audiochecker&#58;

AUDIOCHECKER v2.0 beta (build 457) - by Dester - [url=mailto:[email protected]][email protected][/url]
~~~~~~~~~~~~~~~~~~~~~~~~~~~~~~~~~~
-=== НЕ РЕДАКТИРУЙТЕ ЭТОТ ФАЙЛ! ===-
Путь: ...\Temp
1 -=- Pet Shop Boys - Ultimate Pet Shop Boys.ape -=- CDDA (100%)
125052564
-
Яндекс.Метрика
Рейтинг@Mail.ru