[ Сегодня на трекере фрилич! Идет свободное скачивание без начисления Download ]

La Bouche - Greatest Hits (2007) [FLAC|Lossless]<Eurodance>

 

Создавать темы 17-Дек-2014 11:57

-La Bouche - Greatest Hits (2007)- Год: 2007
Жанр: Eurodance
Продолжительность: 00:59:03
Страна:
Кодек: FLAC
Битрейт: 1023 kbps
Трек лист:
01. Sweet Dreams (03:25)
02. Be My Lover (04:01)
03. In Your Life (04:06)
04. Take Me 2 Heaven 2 Night (03:21)
05. Fallin' In Love (03:57)
06. Say You'll Be Mine (03:33)
07. Bolingo (Love Is In The Air) (04:29)
08. Unexpected Lovers (03:18)
09. A Moment Of Love (04:26)
10. Shoo Bee Do Bee (I Like That Way) (03:27)
11. Where Do You Go (03:45)
12. Do You Still Need Me (03:39)
13. Forget Me Nots (03:34)
14. SOS (03:35)
15. Whenever You Want (03:05)
16. You Won't Forget Me (03:16)

Отчёт EAC

Exact Audio Copy V0.99 prebeta 4 from 23. January 2008
Отчёт EAC об извлечении, выполненном 20. апреля 2008, 18:18
La Bouche / Greatest Hits
Дисковод: PLEXTOR DVDR   PX-810UF   Adapter: 2  ID: 0
Режим чтения                 : Достоверность
Использование точного потока : Да
Отключение кэша аудио        : Да
Использование указателей C2  : Нет
Коррекция смещения при чтении                     : 667
Способность читать области Lead-in и Lead-out     : Нет
Заполнение пропущенных сэмплов тишиной            : Да
Удаление блоков с тишиной в начале и конце        : Нет
При вычислениях CRC использовались нулевые сэмплы : Нет
Интерфейс                                         : Встроенный Win32-интерфейс для Win NT/2000
Выходной формат : Внутренние WAV-операции
Формат сэмплов  : 44.100 Гц; 16 бит; стерео
TOC извлечённого CD
     Трек |   Старт  | Длительность | Начальный сектор | Конечный сектор
    ---------------------------------------------------------------------
       1  |  0:00.00 |    3:25.12   |           0      |      15386
       2  |  3:25.12 |    4:01.50   |       15387      |      33511
       3  |  7:26.62 |    4:06.35   |       33512      |      51996
       4  | 11:33.22 |    3:21.13   |       51997      |      67084
       5  | 14:54.35 |    3:57.00   |       67085      |      84859
       6  | 18:51.35 |    3:33.62   |       84860      |     100896
       7  | 22:25.22 |    4:29.73   |      100897      |     121144
       8  | 26:55.20 |    3:18.02   |      121145      |     135996
       9  | 30:13.22 |    4:26.20   |      135997      |     155966
      10  | 34:39.42 |    3:27.35   |      155967      |     171526
      11  | 38:07.02 |    3:45.25   |      171527      |     188426
      12  | 41:52.27 |    3:39.00   |      188427      |     204851
      13  | 45:31.27 |    3:34.08   |      204852      |     220909
      14  | 49:05.35 |    3:35.67   |      220910      |     237101
      15  | 52:41.27 |    3:05.62   |      237102      |     251038
      16  | 55:47.14 |    3:16.26   |      251039      |     265764
Характеристики диапазона извлечения и сообщения об ошибках
Выбранный диапазон
     Имя файла Z:\Temp\La Bouche - Greatest Hits.wav
     Пиковый уровень 100.0 %
     Качество диапазона 100.0 %
     CRC теста AD5B878D
     CRC копии AD5B878D
     Копирование... OK
Ошибок не произошло
AccurateRip: сводка
Трек  1  точное извлечение (доверие 2)  [48450FBA]
Трек  2  точное извлечение (доверие 2)  [26EDBA6C]
Трек  3  точное извлечение (доверие 2)  [B7C52194]
Трек  4  точное извлечение (доверие 2)  [586C09C9]
Трек  5  точное извлечение (доверие 2)  [C192C81F]
Трек  6  точное извлечение (доверие 2)  [E17C96F3]
Трек  7  точное извлечение (доверие 2)  [69CD9DD0]
Трек  8  точное извлечение (доверие 2)  [62E24836]
Трек  9  точное извлечение (доверие 2)  [6DD90A59]
Трек 10  точное извлечение (доверие 2)  [7C6A4622]
Трек 11  точное извлечение (доверие 2)  [6FB943A8]
Трек 12  точное извлечение (доверие 2)  [B191AB21]
Трек 13  точное извлечение (доверие 2)  [40124036]
Трек 14  точное извлечение (доверие 2)  [7F1FFA72]
Трек 15  точное извлечение (доверие 2)  [36B38ED3]
Трек 16  точное извлечение (доверие 2)  [9BBE999D]
Все треки извлечены точно
Конец отчёта
-
Яндекс.Метрика
Рейтинг@Mail.ru