Desireless - Ses Plus Grands Succes (2003) [FLAC|Lossless]<Pop, Synthpop>

 

Создавать темы 17-Дек-2014 11:57

-Desireless - Ses Plus Grands Succes (2003)- Год: 2003
Жанр: Pop, Synthpop
Продолжительность: 01:15:54
Кодек: FLAC
Битрейт: Lossless
Формат: CD, Compilation
Наличие сканов в содержимом раздачи: да
Издатель (лейбл): Sony Music Media
Номер по каталогу: SMM 5104322
Треклист:
01. Voyage, Voyage
02. John
03. Van Gogh
04. Il Dort
05. Qui Sommes Nous?
06. Bossa Fragile
07. Tombee D'une Montagne
08. L'Amour, L'Amour
09. Hari Om Ramakrishna
10. Je Crois En Toi
11. Elle Est Comme Les Etoiles
12. I Love You
13. Dans Le Jardin D'Eden
14. Qui Peut Savoir
15. Le Retour
16. Les Escaliers Du Bal
17. Voyage, Voyage (PWL Britmix)

Дополнительная информация&#58;

Описание:
Desireless (Claudie Fritsch-Mentrop), в начале 1970-х стала модельером. В 80-х втянутая в музыкальные круги своими друзьями, она начала петь с различными джазовыми, нью-вейв и R&B группами.
В 1984 году произошла встреча с композитором Жаном-Мишелем Рива (Jean Michel Rivat).
В 1986 Рива пишет для нее "Voyage, Voyage", ставший супер-хитом во всей Европе и поднявшийся на вершину хит-парадов Франции, Бельгии, Германии, Испании и Израиля, и разошедшийся тиражом в 4 миллиона копий. Выпущенный в 1987 году "John" оказался тоже довольно успешным, как и полнометражный альбом "Francois", появившийся в 1989 году.
в 1994 году выходит альбом "I Love You", диск был тепло встречен публикой, однако повторить успех первого альбома он не смог.
В 2003 выходит Best ("Ses Plus Grands Succes") в который входит ряд новых песен.

Отчёт ЕАС&#58;

Exact Audio Copy V0.99 prebeta 4 from 23. January 2008
Отчёт EAC об извлечении, выполненном 6. декабря 2008, 17:05
Desireless / Ses Plus Grands Succes
Дисковод: PLEXTOR CD-R   PX-230A   Adapter: 3  ID: 2
Режим чтения                 : Достоверность
Использование точного потока : Да
Отключение кэша аудио        : Да
Использование указателей C2  : Нет
Коррекция смещения при чтении                     : 738
Способность читать области Lead-in и Lead-out     : Нет
Заполнение пропущенных сэмплов тишиной            : Да
Удаление блоков с тишиной в начале и конце        : Нет
При вычислениях CRC использовались нулевые сэмплы : Да
Интерфейс                                         : Встроенный Win32-интерфейс для Win NT/2000
Выходной формат : Внутренние WAV-операции
Формат сэмплов  : 44.100 Гц; 16 бит; стерео
TOC извлечённого CD
     Трек |   Старт  | Длительность | Начальный сектор | Конечный сектор
    ---------------------------------------------------------------------
       1  |  0:00.00 |    4:23.62   |           0      |      19786
       2  |  4:23.62 |    4:12.48   |       19787      |      38734
       3  |  8:36.35 |    4:25.11   |       38735      |      58620
       4  | 13:01.46 |    4:22.52   |       58621      |      78322
       5  | 17:24.23 |    4:28.44   |       78323      |      98466
       6  | 21:52.67 |    3:24.11   |       98467      |     113777
       7  | 25:17.03 |    5:06.71   |      113778      |     136798
       8  | 30:23.74 |    4:18.49   |      136799      |     156197
       9  | 34:42.48 |    5:09.43   |      156198      |     179415
      10  | 39:52.16 |    4:17.47   |      179416      |     198737
      11  | 44:09.63 |    4:12.56   |      198738      |     217693
      12  | 48:22.44 |    4:06.10   |      217694      |     236153
      13  | 52:28.54 |    3:38.12   |      236154      |     252515
      14  | 56:06.66 |    5:34.50   |      252516      |     277615
      15  | 61:41.41 |    3:21.41   |      277616      |     292731
      16  | 65:03.07 |    3:54.10   |      292732      |     310291
      17  | 68:57.17 |    7:05.09   |      310292      |     342175
Характеристики диапазона извлечения и сообщения об ошибках
Выбранный диапазон
     Имя файла D:\! EAC_Rips\Desireless 2003- Ses Plus Grands Succes\Desireless - Ses Plus Grands Succes.wav
     Пиковый уровень 100.0 %
     Качество диапазона 100.0 %
     CRC теста 10AE3290
     CRC копии 10AE3290
     Копирование... OK
Ошибок не произошло
AccurateRip: сводка
Трек  1  нет в базе данных
Трек  2  нет в базе данных
Трек  3  нет в базе данных
Трек  4  нет в базе данных
Трек  5  нет в базе данных
Трек  6  нет в базе данных
Трек  7  нет в базе данных
Трек  8  нет в базе данных
Трек  9  нет в базе данных
Трек 10  нет в базе данных
Трек 11  нет в базе данных
Трек 12  нет в базе данных
Трек 13  нет в базе данных
Трек 14  нет в базе данных
Трек 15  нет в базе данных
Трек 16  нет в базе данных
Трек 17  нет в базе данных
Ни одного трека нет в базе AccurateRip
Конец отчёта

Отчёт Audiochecker&#58;

AUDIOCHECKER v2.0 beta (build 457) - by Dester - [url=mailto:[email protected]][email protected][/url]
~~~~~~~~~~~~~~~~~~~~~~~~~~~~~~~~~~
Started at: вторник, 30. 11. 2010. - 9:38.35
17 files found
01 -===- D:\TORRENT\Desireless - Ses Plus Grands Succes - 2003 [NNM-club]\01 - Voyage, Voyage.flac
  Extracted successfully
  Conclusion: this track is CDDA with probability 100%
  Tempfile successfully deleted.
02 -===- D:\TORRENT\Desireless - Ses Plus Grands Succes - 2003 [NNM-club]\02 - John.flac
  Extracted successfully
  Conclusion: this track is CDDA with probability 100%
  Tempfile successfully deleted.
03 -===- D:\TORRENT\Desireless - Ses Plus Grands Succes - 2003 [NNM-club]\03 - Van Gogh.flac
  Extracted successfully
  Conclusion: this track is CDDA with probability 100%
  Tempfile successfully deleted.
04 -===- D:\TORRENT\Desireless - Ses Plus Grands Succes - 2003 [NNM-club]\04 - Il Dort.flac
  Extracted successfully
  Conclusion: this track is CDDA with probability 100%
  Tempfile successfully deleted.
05 -===- D:\TORRENT\Desireless - Ses Plus Grands Succes - 2003 [NNM-club]\05 - Qui Sommes Nous.flac
  Extracted successfully
  Conclusion: this track is CDDA with probability 100%
  Tempfile successfully deleted.
06 -===- D:\TORRENT\Desireless - Ses Plus Grands Succes - 2003 [NNM-club]\06 - Bossa Fragile.flac
  Extracted successfully
  Conclusion: this track is CDDA with probability 100%
  Tempfile successfully deleted.
07 -===- D:\TORRENT\Desireless - Ses Plus Grands Succes - 2003 [NNM-club]\07 - Tombee D'une Montagne.flac
  Extracted successfully
  Conclusion: this track is CDDA with probability 100%
  Tempfile successfully deleted.
08 -===- D:\TORRENT\Desireless - Ses Plus Grands Succes - 2003 [NNM-club]\08 - L'Amour, L'Amour.flac
  Extracted successfully
  Conclusion: this track is CDDA with probability 100%
  Tempfile successfully deleted.
09 -===- D:\TORRENT\Desireless - Ses Plus Grands Succes - 2003 [NNM-club]\09 - Hari Om Ramakrishna.flac
  Extracted successfully
  Conclusion: this track is CDDA with probability 100%
  Tempfile successfully deleted.
10 -===- D:\TORRENT\Desireless - Ses Plus Grands Succes - 2003 [NNM-club]\10 - Je Crois En Toi.flac
  Extracted successfully
  Conclusion: this track is CDDA with probability 100%
  Tempfile successfully deleted.
11 -===- D:\TORRENT\Desireless - Ses Plus Grands Succes - 2003 [NNM-club]\11 - Elle Est Comme Les Etoiles.flac
  Extracted successfully
  Conclusion: this track is CDDA with probability 100%
  Tempfile successfully deleted.
12 -===- D:\TORRENT\Desireless - Ses Plus Grands Succes - 2003 [NNM-club]\12 - I Love You.flac
  Extracted successfully
  Conclusion: this track is CDDA with probability 85%
  Tempfile successfully deleted.
13 -===- D:\TORRENT\Desireless - Ses Plus Grands Succes - 2003 [NNM-club]\13 - Dans Le Jardin D'Eden.flac
  Extracted successfully
  Conclusion: this track is CDDA with probability 100%
  Tempfile successfully deleted.
14 -===- D:\TORRENT\Desireless - Ses Plus Grands Succes - 2003 [NNM-club]\14 - Qui Peut Savoir.flac
  Extracted successfully
  Conclusion: this track is CDDA with probability 100%
  Tempfile successfully deleted.
15 -===- D:\TORRENT\Desireless - Ses Plus Grands Succes - 2003 [NNM-club]\15 - Le Retour.flac
  Extracted successfully
  Conclusion: this track is CDDA with probability 100%
  Tempfile successfully deleted.
16 -===- D:\TORRENT\Desireless - Ses Plus Grands Succes - 2003 [NNM-club]\16 - Les Escaliers Du Bal.flac
  Extracted successfully
  Conclusion: this track is CDDA with probability 100%
  Tempfile successfully deleted.
17 -===- D:\TORRENT\Desireless - Ses Plus Grands Succes - 2003 [NNM-club]\17 - Voyage, Voyage (PWL Britmix).flac
  Extracted successfully
  Conclusion: this track is CDDA with probability 100%
  Tempfile successfully deleted.
Finished at: вторник, 30. 11. 2010. - 9:49.38 (operation time: 0:11.02)
-
Яндекс.Метрика
Рейтинг@Mail.ru