[ Сегодня на трекере фрилич! Идет свободное скачивание без начисления Download ]

E-Rotic - The Best of (2009) [FLAC|Lossless]<EuroDance>

 

Создавать темы 17-Дек-2014 11:57

-E-Rotic - The Best of (2009)- Год: 2009
Жанр: EuroDance
Продолжительность: 02:38:21

Кодек: FLAC
Битрейт: Lossless
Тип битрейта: VBR

Трек лист:

CD1

Продолжительность: 01:19:09
Трек лист:
01. Tempt Me On The Line (3:48)
02. Kiss My Lips (3:14)
03. Seven Seconds (4:02)
04. Billy Jive (with willy's wife) (3:38)
05. Don't Talk Dirty To Me (3:24)
06. Max Don't Have Sex With Your Ex (3:30)
07. Queen of Light (4:00)
08. Sexual Madness (3:46)
09. Come On Make Love To Me (3:26)
10. Lemmings On The Run (3:23)
11. Latin Lover (4:08)
12. Ralph, Don't Make Love By Yourself (3:58)
13. Frits Love My Tits (4:07)
14. Missing You (3:51)
15. Oh Nick Please Not So Quick (3:21)
16. Lay Back (3:30)
17. Talk To Your Girl (4:47)
18. Dance With The Vamps (3:57)
19. Heartbreaker (3:52)
20. Crying like a child (4:04)
21. Don't Make Me Wet (3:23)

CD2

Продолжительность: 01:19:12
Трек лист:
01. Dangerous Kiss (3:28)
02. Rock me Baby (3:47)
03. Sexual Healing (3:18)
04. Fred Come To Bed (3:56)
05. L.O.V.E. (Sex On The Beach) (3:43)
06. Veejay The DJ (3:35)
07. Wild Love (3:57)
08. In the Heat of the Night (3:48)
09. Give A Little Love (3:56)
10. Help Me Dr. Dick (3:42)
11. Don't Say we're Through (4:40)
12. It's just a little flirt (3:35)
13. Touch Me (3:29)
14. Dr. Love (3:15)
15. Do It All Night (3:46)
16. Bad boy (3:40)
17. Don't You See The Light (3:53)
18. Shenandoah (3:55)
19. Send Me a Message of Love (3:55)
20. Sex On The Phone (3:54)
21. The story is over (4:00)

CD1 EAC .log

Exact Audio Copy V0.99 prebeta 5 from 4. May 2009
Отчёт EAC об извлечении, выполненном 3. октября 2009, 9:15
E-Rotic / The Best Of Disc-1
Дисковод: TSSTcorpCD/DVDW SH-S182D Adapter: 5 ID: 0
Режим чтения : Достоверность
Использование точного потока : Да
Отключение кэша аудио : Нет
Использование указателей C2 : Нет
Коррекция смещения при чтении : 6
Способность читать области Lead-in и Lead-out : Нет
Заполнение пропущенных сэмплов тишиной : Да
Удаление блоков с тишиной в начале и конце : Нет
При вычислениях CRC использовались нулевые сэмплы : Да
Интерфейс : Установленный внешний ASPI-интерфейс
Выходной формат : Внутренние WAV-операции
Формат сэмплов : 44.100 Гц; 16 бит; стерео
TOC извлечённого CD
Трек | Старт | Длительность | Начальный сектор | Конечный сектор
---------------------------------------------------------------------
1 | 0:00.00 | 3:48.72 | 0 | 17171
2 | 3:48.72 | 3:14.17 | 17172 | 31738
3 | 7:03.14 | 4:02.39 | 31739 | 49927
4 | 11:05.53 | 3:38.39 | 49928 | 66316
5 | 14:44.17 | 3:24.51 | 66317 | 81667
6 | 18:08.68 | 3:30.08 | 81668 | 97425
7 | 21:39.01 | 4:00.15 | 97426 | 115440
8 | 25:39.16 | 3:46.41 | 115441 | 132431
9 | 29:25.57 | 3:26.28 | 132432 | 147909
10 | 32:52.10 | 3:23.65 | 147910 | 163199
11 | 36:16.00 | 4:08.73 | 163200 | 181872
12 | 40:24.73 | 3:58.60 | 181873 | 199782
13 | 44:23.58 | 4:07.72 | 199783 | 218379
14 | 48:31.55 | 3:51.57 | 218380 | 235761
15 | 52:23.37 | 3:21.43 | 235762 | 250879
16 | 55:45.05 | 3:30.01 | 250880 | 266630
17 | 59:15.06 | 4:47.62 | 266631 | 288217
18 | 64:02.68 | 3:57.42 | 288218 | 306034
19 | 68:00.35 | 3:52.37 | 306035 | 323471
20 | 71:52.72 | 4:04.64 | 323472 | 341835
21 | 75:57.61 | 3:23.22 | 341836 | 357082
Характеристики диапазона извлечения и сообщения об ошибках
Выбранный диапазон
Имя файла E:\Audio in lossless\1 1111\E-Rotic LossLess\E-Rotic © 2009 - The Best Of (2CD)\Disc-1\E-Rotic - The Best Of Disc-1.wav
Пиковый уровень 100.0 %
Качество диапазона 100.0 %
CRC копии 389A4F98
Копирование... OK
Ошибок не произошло
Конец отчёта

CD2 EAC .log

Exact Audio Copy V0.99 prebeta 5 from 4. May 2009
Отчёт EAC об извлечении, выполненном 3. октября 2009, 9:36
E-Rotic / The Best Of Disc-2
Дисковод: TSSTcorpCD/DVDW SH-S182D Adapter: 5 ID: 0
Режим чтения : Достоверность
Использование точного потока : Да
Отключение кэша аудио : Нет
Использование указателей C2 : Нет
Коррекция смещения при чтении : 6
Способность читать области Lead-in и Lead-out : Нет
Заполнение пропущенных сэмплов тишиной : Да
Удаление блоков с тишиной в начале и конце : Нет
При вычислениях CRC использовались нулевые сэмплы : Да
Интерфейс : Установленный внешний ASPI-интерфейс
Выходной формат : Внутренние WAV-операции
Формат сэмплов : 44.100 Гц; 16 бит; стерео
TOC извлечённого CD
Трек | Старт | Длительность | Начальный сектор | Конечный сектор
---------------------------------------------------------------------
1 | 0:00.00 | 3:28.47 | 0 | 15646
2 | 3:28.47 | 3:47.58 | 15647 | 32729
3 | 7:16.30 | 3:18.23 | 32730 | 47602
4 | 10:34.53 | 3:56.45 | 47603 | 65347
5 | 14:31.23 | 3:43.01 | 65348 | 82073
6 | 18:14.24 | 3:35.51 | 82074 | 98249
7 | 21:50.00 | 3:57.60 | 98250 | 116084
8 | 25:47.60 | 3:48.61 | 116085 | 133245
9 | 29:36.46 | 3:56.04 | 133246 | 150949
10 | 33:32.50 | 3:42.39 | 150950 | 167638
11 | 37:15.14 | 4:40.32 | 167639 | 188670
12 | 41:55.46 | 3:35.37 | 188671 | 204832
13 | 45:31.08 | 3:29.01 | 204833 | 220508
14 | 49:00.09 | 3:15.18 | 220509 | 235151
15 | 52:15.27 | 3:46.11 | 235152 | 252112
16 | 56:01.38 | 3:40.01 | 252113 | 268613
17 | 59:41.39 | 3:53.01 | 268614 | 286089
18 | 63:34.40 | 3:55.12 | 286090 | 303726
19 | 67:29.52 | 3:55.12 | 303727 | 321363
20 | 71:24.64 | 3:54.22 | 321364 | 338935
21 | 75:19.11 | 4:00.50 | 338936 | 356985
Характеристики диапазона извлечения и сообщения об ошибках
Выбранный диапазон
Имя файла E:\Audio in lossless\1 1111\E-Rotic LossLess\E-Rotic © 2009 - The Best Of (2CD)\Disc-2\E-Rotic - The Best Of Disc-2.wav
Пиковый уровень 100.0 %
Качество диапазона 99.6 %
CRC копии E7FD0B13
Копирование... OK
Ошибок не произошло
Конец отчёта

CD1 audiochecker .log

AUDIOCHECKER v2.0 beta (build 457) - by Dester - [url=mailto:[email protected]][email protected][/url]
~~~~~~~~~~~~~~~~~~~~~~~~~~~~~~~~~~
-=== НЕ РЕДАКТИРУЙТЕ ЭТОТ ФАЙЛ! ===-
Путь: ...\Disc-1
01 -=- 01. Tempt Me On The Line.flac -=- CDDA (100%)
02 -=- 02. Kiss My Lips.flac -=- CDDA (100%)
03 -=- 03. Seven Seconds.flac -=- CDDA (100%)
04 -=- 04. Billy Jive (with willy's wife).flac -=- CDDA (100%)
05 -=- 05. Don't Talk Dirty To Me.flac -=- CDDA (100%)
06 -=- 06. Max Don't Have Sex With Your Ex.flac -=- CDDA (99%)
07 -=- 07. Queen of Light.flac -=- CDDA (99%)
08 -=- 08. Sexual Madness.flac -=- CDDA (100%)
09 -=- 09. Come On Make Love To Me.flac -=- CDDA (100%)
10 -=- 10. Lemmings On The Run.flac -=- CDDA (100%)
11 -=- 11. Latin Lover.flac -=- CDDA (100%)
12 -=- 12. Ralph, Don't Make Love By Yourself.flac -=- CDDA (100%)
13 -=- 13. Frits Love My Tits.flac -=- CDDA (100%)
14 -=- 14. Missing You.flac -=- CDDA (100%)
15 -=- 15. Oh Nick Please Not So Quick.flac -=- CDDA (100%)
16 -=- 16. Lay Back.flac -=- CDDA (100%)
17 -=- 17. Talk To Your Girl.flac -=- CDDA (100%)
18 -=- 18. Dance With The Vamps.flac -=- CDDA (100%)
19 -=- 19. Heartbreaker.flac -=- CDDA (100%)
20 -=- 20. Crying like a child.flac -=- CDDA (100%)
21 -=- 21. Don't Make Me Wet.flac -=- CDDA (100%)
Сводка 99,90% CDDA

CD2 audiochecker .log

AUDIOCHECKER v2.0 beta (build 457) - by Dester - [url=mailto:[email protected]][email protected][/url]
~~~~~~~~~~~~~~~~~~~~~~~~~~~~~~~~~~
-=== НЕ РЕДАКТИРУЙТЕ ЭТОТ ФАЙЛ! ===-
Путь: ...\Disc-2
01 -=- 01. Dangerous Kiss.flac -=- CDDA (100%)
02 -=- 02. Rock me Baby.flac -=- CDDA (99%)
03 -=- 03. Sexual Healing.flac -=- CDDA (100%)
04 -=- 04. Fred Come To Bed.flac -=- CDDA (100%)
05 -=- 05. L.O.V.E. (Sex On The Beach).flac -=- CDDA (100%)
06 -=- 06. Veejay The DJ.flac -=- CDDA (100%)
07 -=- 07. Wild Love.flac -=- CDDA (100%)
08 -=- 08. In the Heat of the Night.flac -=- CDDA (100%)
09 -=- 09. Give A Little Love.flac -=- CDDA (100%)
10 -=- 10. Help Me Dr. Dick.flac -=- CDDA (100%)
11 -=- 11. Don't Say we're Through.flac -=- CDDA (100%)
12 -=- 12. It's just a little flirt.flac -=- CDDA (100%)
13 -=- 13. Touch Me.flac -=- CDDA (100%)
14 -=- 14. Dr. Love.flac -=- CDDA (100%)
15 -=- 15. Do It All Night.flac -=- CDDA (100%)
16 -=- 16. Bad boy.flac -=- CDDA (100%)
17 -=- 17. Don't You See The Light.flac -=- CDDA (99%)
18 -=- 18. Shenandoah.flac -=- CDDA (100%)
19 -=- 19. Send Me a Message of Love.flac -=- CDDA (100%)
20 -=- 20. Sex On The Phone.flac -=- CDDA (100%)
21 -=- 21. The story is over.flac -=- CDDA (100%)
Сводка 99,90% CDDA
Время раздачи: 24/7
Яндекс.Метрика
Рейтинг@Mail.ru