Ace Of Base - The Ultimate Collection (2005) 3 CD [FLAC|Lossless]<Eurodance>

 

Создавать темы 17-Дек-2014 11:57

-Ace Of Base - The Ultimate Collection (2005) 3 CD- Год: 2005
Жанр: Eurodance
Продолжительность: 02:33:08
Кодек: FLAC
Битрейт: Lossless
Тип раздачи: image+.cue
Наличие сканов в содержимом раздачи: да
Страна-производитель диска: Netherlands
Формат: 3 х CD, Compilation, Remastered, Digi-Pack
Издатель (лейбл): Universal
Номер по каталогу: 982 980-7-«The Ultimate Collection» — альбом-сборник лучших хитов шведской поп-группы «Ace of Base», выпущен 19 июля 2005 года компанией Universal. Альбом состоит из трёх дисков, на одном из которых находятся только ремиксы.-

CD1

Прoдолжительность: 00:52:09
Треклист:
01. All That She Wants (03:35)
02. Wheel Of Fortune (03:52)
03. Happy Nation (04:10)
04. The Sign (03:10)
05. Waitung For Magic (05:19)
06. Don't Turn Around (03:49)
07. Living In Danger (03:43)
08. Lucky Love (02:54)
09. Beautiful Life (03:40)
10. Never Gonna Say I'm Sorry (03:15)
11. My Deja Vu (03:21)
12. Perfect World (03:54)
13. Life Is A Flower (03:45)
14. Cruel Summer (03:34)

Отчёт Exact Audio Copy&#58;

Exact Audio Copy V0.99 prebeta 5 from 4. May 2009
EAC extraction logfile from 31. July 2010, 5:30
Ace Of Base / The Ultimate Collection CD1
Used drive  : Optiarc DVD RW AD-7203S   Adapter: 3  ID: 1
Read mode               : Secure
Utilize accurate stream : Yes
Defeat audio cache      : Yes
Make use of C2 pointers : No
Read offset correction                      : 48
Overread into Lead-In and Lead-Out          : No
Fill up missing offset samples with silence : Yes
Delete leading and trailing silent blocks   : No
Null samples used in CRC calculations       : Yes
Used interface                              : Installed external ASPI interface
Used output format              : User Defined Encoder
Selected bitrate                : 1024 kBit/s
Quality                         : High
Add ID3 tag                     : No
Command line compressor         : C:\Program Files\Exact Audio Copy\Flac\flac.exe
Additional command line options : -0 -V -T "ARTIST=%a" -T "ALBUM=%g" -T "DATE=%y" -T "GENRE=%m" -T "COMMENT=released by KoGGaN" -T "URL=http://flacmusic.ru/user/DaRReL/news/" %s
TOC of the extracted CD
     Track |   Start  |  Length  | Start sector | End sector
    ---------------------------------------------------------------------
       1  |  0:00.00 |    3:35.45   |           0      |      16169
       2  |  3:35.45 |    3:52.66   |       16170      |      33635
       3  |  7:28.36 |    4:10.40   |       33636      |      52425
       4  | 11:39.01 |    3:10.64   |       52426      |      66739
       5  | 14:49.65 |    5:19.40   |       66740      |      90704
       6  | 20:09.30 |    3:49.73   |       90705      |     107952
       7  | 23:59.28 |    3:43.54   |      107953      |     124731
       8  | 27:43.07 |    2:54.42   |      124732      |     137823
       9  | 30:37.49 |    3:40.38   |      137824      |     154361
      10  | 34:18.12 |    3:15.73   |      154362      |     169059
      11  | 37:34.10 |    3:21.02   |      169060      |     184136
      12  | 40:55.12 |    3:54.71   |      184137      |     201757
      13  | 44:50.08 |    3:45.16   |      201758      |     218648
      14  | 48:35.24 |    3:34.24   |      218649      |     234722
Range status and errors
Selected range
     Filename E:\Audio in lossless\$ Pop & Disco $\Ace Of Base © 2005 - The Ultimate Collection (3CD)\Ace Of Base - The Ultimate Collection CD1.wav
     Peak level 100.0 %
     Range quality 100.0 %
     Copy CRC 0D2E41D8
     Copy OK
No errors occurred
End of status report

Отчёт audiochecker&#58;

AUDIOCHECKER v2.0 beta (build 457) - by Dester - [url=mailto:[email protected]][email protected][/url]
~~~~~~~~~~~~~~~~~~~~~~~~~~~~~~~~~~
-=== DO NOT EDIT THIS FILE! ===-
Path: ...\CD 1
1 -=- Ace Of Base - The Ultimate Collection CD1.flac -=- CDDA (100%)
243418532

CD2

Прoдолжительность: 00:50:26
Треклист:
01. Donnie (04:36)
02. Travel To Romantis (04:09)
03. Always Have, Always Will (03:43)
04. Everytime It Rains (03:54)
05. Cecilia (03:54)
06. Tokyo Girl (03:35)
07. C'Est La Vie (03:27)
08. Hello Hello (02:52)
09. Love In December (04:00)
10. Beautiful Morning (03:00)
11. Unspeakable (03:13)
12. The Juvenile (03:41)
13. Da Capo (03:11)
14. What's The Name Of The Game (03:03)

Отчёт Exact Audio Copy&#58;

Exact Audio Copy V0.99 prebeta 5 from 4. May 2009
EAC extraction logfile from 31. July 2010, 5:55
Ace Of Base / The Ultimate Collection CD2
Used drive  : Optiarc DVD RW AD-7203S   Adapter: 3  ID: 1
Read mode               : Secure
Utilize accurate stream : Yes
Defeat audio cache      : Yes
Make use of C2 pointers : No
Read offset correction                      : 48
Overread into Lead-In and Lead-Out          : No
Fill up missing offset samples with silence : Yes
Delete leading and trailing silent blocks   : No
Null samples used in CRC calculations       : Yes
Used interface                              : Installed external ASPI interface
Used output format              : User Defined Encoder
Selected bitrate                : 1024 kBit/s
Quality                         : High
Add ID3 tag                     : No
Command line compressor         : C:\Program Files\Exact Audio Copy\Flac\flac.exe
Additional command line options : -0 -V -T "ARTIST=%a" -T "ALBUM=%g" -T "DATE=%y" -T "GENRE=%m" -T "COMMENT=released by KoGGaN" -T "URL=http://flacmusic.ru/user/DaRReL/news/" %s
TOC of the extracted CD
     Track |   Start  |  Length  | Start sector | End sector
    ---------------------------------------------------------------------
       1  |  0:00.00 |    4:36.69   |           0      |      20768
       2  |  4:36.69 |    4:09.15   |       20769      |      39458
       3  |  8:46.09 |    3:43.73   |       39459      |      56256
       4  | 12:30.07 |    3:54.40   |       56257      |      73846
       5  | 16:24.47 |    3:54.08   |       73847      |      91404
       6  | 20:18.55 |    3:35.48   |       91405      |     107577
       7  | 23:54.28 |    3:27.68   |      107578      |     123170
       8  | 27:22.21 |    2:52.19   |      123171      |     136089
       9  | 30:14.40 |    4:00.40   |      136090      |     154129
      10  | 34:15.05 |    3:00.47   |      154130      |     167676
      11  | 37:15.52 |    3:13.43   |      167677      |     182194
      12  | 40:29.20 |    3:41.73   |      182195      |     198842
      13  | 44:11.18 |    3:11.28   |      198843      |     213195
      14  | 47:22.46 |    3:03.45   |      213196      |     226965
Range status and errors
Selected range
     Filename E:\Audio in lossless\$ Pop & Disco $\Ace Of Base © 2005 - The Ultimate Collection (3CD)\Ace Of Base - The Ultimate Collection CD2.wav
     Peak level 100.0 %
     Range quality 100.0 %
     Copy CRC 95087E63
     Copy OK
No errors occurred
End of status report

Отчёт audiochecker&#58;

AUDIOCHECKER v2.0 beta (build 457) - by Dester - [url=mailto:[email protected]][email protected][/url]
~~~~~~~~~~~~~~~~~~~~~~~~~~~~~~~~~~
-=== DO NOT EDIT THIS FILE! ===-
Path: ...\CD 2
1 -=- Ace Of Base - The Ultimate Collection CD2.flac -=- CDDA (100%)
243340708

CD3

Прoдолжительность: 00:43:28
Треклист:
01. Wheel Of Fortune (Original Club Mix) (04:03)
02. My Mind (Mindless Mix) (04:14)
03. All That She Wants (Banghra Version) (04:17)
04. Happy Nation (Remix) (03:47)
05. The Sign (Dub Version) (05:12)
06. Don't Turn Around (Stretch Version) (05:59)
07. Lucky Love (Armand's 'British Nites' Remix) (11:24)
08. Cruel Summer (Big Bonus Mix) (04:09)
09. Megamix (Long Version) (07:21)

Отчёт Exact Audio Copy&#58;

Exact Audio Copy V0.99 prebeta 5 from 4. May 2009
EAC extraction logfile from 31. July 2010, 6:35
Ace Of Base / The Ultimate Collection CD3
Used drive  : Optiarc DVD RW AD-7203S   Adapter: 3  ID: 1
Read mode               : Secure
Utilize accurate stream : Yes
Defeat audio cache      : Yes
Make use of C2 pointers : No
Read offset correction                      : 48
Overread into Lead-In and Lead-Out          : No
Fill up missing offset samples with silence : Yes
Delete leading and trailing silent blocks   : No
Null samples used in CRC calculations       : Yes
Used interface                              : Installed external ASPI interface
Used output format              : User Defined Encoder
Selected bitrate                : 1024 kBit/s
Quality                         : High
Add ID3 tag                     : No
Command line compressor         : C:\Program Files\Exact Audio Copy\Flac\flac.exe
Additional command line options : -0 -V -T "ARTIST=%a" -T "ALBUM=%g" -T "DATE=%y" -T "GENRE=%m" -T "COMMENT=released by KoGGaN" -T "URL=http://flacmusic.ru/user/DaRReL/news/" %s
TOC of the extracted CD
     Track |   Start  |  Length  | Start sector | End sector
    ---------------------------------------------------------------------
       1  |  0:00.00 |    4:03.70   |           0      |      18294
       2  |  4:03.70 |    4:14.47   |       18295      |      37391
       3  |  8:18.42 |    4:17.71   |       37392      |      56737
       4  | 12:36.38 |    3:47.00   |       56738      |      73762
       5  | 16:23.38 |    5:12.40   |       73763      |      97202
       6  | 21:36.03 |    5:59.68   |       97203      |     124195
       7  | 27:35.71 |   11:24.57   |      124196      |     175552
       8  | 39:00.53 |    4:09.55   |      175553      |     194282
       9  | 43:10.33 |    7:21.55   |      194283      |     227412
Range status and errors
Selected range
     Filename E:\Audio in lossless\$ Pop & Disco $\Ace Of Base © 2005 - The Ultimate Collection (3CD)\Ace Of Base - The Ultimate Collection CD3.wav
     Peak level 100.0 %
     Range quality 100.0 %
     Copy CRC ABD797AE
     Copy OK
No errors occurred
End of status report

Отчёт audiochecker&#58;

AUDIOCHECKER v2.0 beta (build 457) - by Dester - [url=mailto:[email protected]][email protected][/url]
~~~~~~~~~~~~~~~~~~~~~~~~~~~~~~~~~~
-=== DO NOT EDIT THIS FILE! ===-
Path: ...\CD 3
1 -=- Ace Of Base - The Ultimate Collection CD3.flac -=- CDDA (100%)
243393956
-
Яндекс.Метрика
Рейтинг@Mail.ru