[ Сегодня на трекере фрилич! Идет свободное скачивание без начисления Download ]

Falco - Два Альбома (1982, 1986)(Not remastered)[FLAC|Lossless]<New Wave>

 

Создавать темы 17-Дек-2014 11:57

-Falco - Einzelhaft (1982)- Год: 1982
Жанр: New Wave
Издание: 1987 GIG Records/TELDEC Schallplatten GmbH / 2292-44094-2
Треклист:
[font:0fd95e4f6c="Tahoma"]01. Zuviel Hitze (4:37)
[font:0fd95e4f6c="Tahoma"]02. Der Kommissar (3:53)
[font:0fd95e4f6c="Tahoma"]03. Siebzehn Jahr (3:56)
[font:0fd95e4f6c="Tahoma"]04. Auf der Flucht (4:15)
[font:0fd95e4f6c="Tahoma"]05. Ganz Wien (5:09)
[font:0fd95e4f6c="Tahoma"]06. Maschine brennt (3:40)
[font:0fd95e4f6c="Tahoma"]07. Hinter uns die Sintflut (3:21)
[font:0fd95e4f6c="Tahoma"]08. Nie mehr Schule (4:38)
[font:0fd95e4f6c="Tahoma"]09. Helden von heute (4:10)
[font:0fd95e4f6c="Tahoma"]10. Einzelhaft (4:02)
Продолжительность: 00:41:39
Кодек: FLAC
Тип рипа: image + .cue (CUETools repack)
Коврики: front, back, CD

Отчёт ЕАС&#58;

Exact Audio Copy V0.99 prebeta 4 from 23. January 2008
EAC extraction logfile from 3. July 2009, 14:38
Falco / Einzelhaft
Used drive  : ASUS    DRW-20B1LT   Adapter: 1  ID: 1
Read mode               : Secure
Utilize accurate stream : Yes
Defeat audio cache      : Yes
Make use of C2 pointers : No
Read offset correction                      : 6
Overread into Lead-In and Lead-Out          : No
Fill up missing offset samples with silence : Yes
Delete leading and trailing silent blocks   : No
Null samples used in CRC calculations       : Yes
Used interface                              : Native Win32 interface for Win NT & 2000
Gap handling                                : Appended to previous track
Used output format : Internal WAV Routines
Sample format      : 44.100 Hz; 16 Bit; Stereo
TOC of the extracted CD
     Track |   Start  |  Length  | Start sector | End sector
    ---------------------------------------------------------
        1  |  0:00.32 |  4:36.48 |        32    |    20779
        2  |  4:37.05 |  3:52.62 |     20780    |    38241
        3  |  8:29.67 |  3:55.48 |     38242    |    55914
        4  | 12:25.40 |  4:14.57 |     55915    |    75021
        5  | 16:40.22 |  5:09.10 |     75022    |    98206
        6  | 21:49.32 |  3:39.58 |     98207    |   114689
        7  | 25:29.15 |  3:20.57 |    114690    |   129746
        8  | 28:49.72 |  4:37.50 |    129747    |   150571
        9  | 33:27.47 |  4:09.65 |    150572    |   169311
       10  | 37:37.37 |  4:01.73 |    169312    |   187459
Track  1
     Filename C:\EACrips\Falco - Einzelhaft\01 - Zuviel Hitze.wav
     Pre-gap length  0:00:02.42
     Peak level 74.2 %
     Track quality 100.0 %
     Test CRC EBB05099
     Copy CRC EBB05099
     Accurately ripped (confidence 14)  [AB3CCF97]
     Copy OK
Track  2
     Filename C:\EACrips\Falco - Einzelhaft\02 - Der Kommissar.wav
     Pre-gap length  0:00:02.66
     Peak level 66.8 %
     Track quality 100.0 %
     Test CRC F7FA8942
     Copy CRC F7FA8942
     Accurately ripped (confidence 15)  [61681AF1]
     Copy OK
Track  3
     Filename C:\EACrips\Falco - Einzelhaft\03 - Siebzehn Jahr.wav
     Pre-gap length  0:00:00.84
     Peak level 70.5 %
     Track quality 100.0 %
     Test CRC 35F56692
     Copy CRC 35F56692
     Accurately ripped (confidence 11)  [C8DC6F76]
     Copy OK
Track  4
     Filename C:\EACrips\Falco - Einzelhaft\04 - Auf der Flucht.wav
     Pre-gap length  0:00:01.60
     Peak level 63.7 %
     Track quality 100.0 %
     Test CRC D91AC910
     Copy CRC D91AC910
     Accurately ripped (confidence 12)  [2FD56C27]
     Copy OK
Track  5
     Filename C:\EACrips\Falco - Einzelhaft\05 - Ganz Wien.wav
     Pre-gap length  0:00:01.44
     Peak level 69.8 %
     Track quality 99.9 %
     Test CRC 4AC66566
     Copy CRC 4AC66566
     Accurately ripped (confidence 13)  [63DD9651]
     Copy OK
Track  6
     Filename C:\EACrips\Falco - Einzelhaft\06 - Maschine brennt.wav
     Pre-gap length  0:00:02.22
     Peak level 75.1 %
     Track quality 100.0 %
     Test CRC D572E984
     Copy CRC D572E984
     Accurately ripped (confidence 14)  [7C3B7CCD]
     Copy OK
Track  7
     Filename C:\EACrips\Falco - Einzelhaft\07 - Hinter uns die Sintflut.wav
     Pre-gap length  0:00:01.20
     Peak level 70.1 %
     Track quality 100.0 %
     Test CRC 3408D2CE
     Copy CRC 3408D2CE
     Accurately ripped (confidence 14)  [E46633DE]
     Copy OK
Track  8
     Filename C:\EACrips\Falco - Einzelhaft\08 - Nie mehr Schule.wav
     Pre-gap length  0:00:04.38
     Peak level 66.9 %
     Track quality 100.0 %
     Test CRC 74C96F78
     Copy CRC 74C96F78
     Accurately ripped (confidence 14)  [155E243C]
     Copy OK
Track  9
     Filename C:\EACrips\Falco - Einzelhaft\09 - Helden von heute.wav
     Pre-gap length  0:00:01.49
     Peak level 66.3 %
     Track quality 100.0 %
     Test CRC A54DDD2D
     Copy CRC A54DDD2D
     Accurately ripped (confidence 15)  [C17087A4]
     Copy OK
Track 10
     Filename C:\EACrips\Falco - Einzelhaft\10 - Einzelhaft.wav
     Pre-gap length  0:00:02.32
     Peak level 70.9 %
     Track quality 100.0 %
     Test CRC 4D9819D0
     Copy CRC 4D9819D0
     Accurately ripped (confidence 14)  [F00B7F7D]
     Copy OK
All tracks accurately ripped
No errors occurred
End of status report

Содержимое индексной карты&#58;

REM ACCURATERIPID 000fde6b-007e9428-6909c30a
REM GENRE Pop
REM DATE 1982
REM DISCID 6909C30A
REM COMMENT "ExactAudioCopy v0.99pb4"
PERFORMER "Falco"
TITLE "Einzelhaft"
FILE "Falco - Einzelhaft.flac" WAVE
  TRACK 01 AUDIO
    TITLE "Zuviel Hitze"
    PERFORMER "Falco"
    INDEX 00 00:00:00
    INDEX 01 00:00:32
  TRACK 02 AUDIO
    TITLE "Der Kommissar"
    PERFORMER "Falco"
    INDEX 00 04:34:30
    INDEX 01 04:37:05
  TRACK 03 AUDIO
    TITLE "Siebzehn Jahr"
    PERFORMER "Falco"
    INDEX 00 08:29:04
    INDEX 01 08:29:67
  TRACK 04 AUDIO
    TITLE "Auf der Flucht"
    PERFORMER "Falco"
    INDEX 00 12:23:70
    INDEX 01 12:25:40
  TRACK 05 AUDIO
    TITLE "Ganz Wien"
    PERFORMER "Falco"
    INDEX 00 16:38:64
    INDEX 01 16:40:22
  TRACK 06 AUDIO
    TITLE "Maschine brennt"
    PERFORMER "Falco"
    INDEX 00 21:47:15
    INDEX 01 21:49:32
  TRACK 07 AUDIO
    TITLE "Hinter uns die Sintflut"
    PERFORMER "Falco"
    INDEX 00 25:28:00
    INDEX 01 25:29:15
  TRACK 08 AUDIO
    TITLE "Nie mehr Schule"
    PERFORMER "Falco"
    INDEX 00 28:45:43
    INDEX 01 28:49:72
  TRACK 09 AUDIO
    TITLE "Helden von heute"
    PERFORMER "Falco"
    INDEX 00 33:26:10
    INDEX 01 33:27:47
  TRACK 10 AUDIO
    TITLE "Einzelhaft"
    PERFORMER "Falco"
    INDEX 00 37:35:13
    INDEX 01 37:37:37
-Falco - Emotional (1986)
- Год: 1986
Жанр: New Wave
Издание: 1986 Sire / 9 25522-2
Треклист:
[font:0fd95e4f6c="Tahoma"]01. Emotional (4:55)
[font:0fd95e4f6c="Tahoma"]02. Kamikaze Cappa (Dedicated To Robert Cappa Who Died In Indochina) (5:10)
[font:0fd95e4f6c="Tahoma"]03. Crime Time (4:26)
[font:0fd95e4f6c="Tahoma"]04. Cowboyz And Indianz (5:50)
[font:0fd95e4f6c="Tahoma"]05. Coming Home (Jeanny Part II, One Year Later) (5:32)
[font:0fd95e4f6c="Tahoma"]06. The Star Of Moon And Sun (5:22)
[font:0fd95e4f6c="Tahoma"]07. Les Nouveaux Riches (4:32)
[font:0fd95e4f6c="Tahoma"]08. The Sound Of Music (5:00)
[font:0fd95e4f6c="Tahoma"]09. The Kiss Of Kathleen Turner (7:32)
Продолжительность: 00:48:19
Кодек: FLAC
Тип рипа: image + .cue (CUETools repack)
Коврики: Не оригинальные!

Отчёт ЕАС&#58;

EAC extraction logfile from 11. January 2008, 8:13 for CD
Falco / Emotional
Used drive  : PIONEER DVD-RW  DVR-107D   Adapter: 1  ID: 0
Read mode   : Secure with NO C2, accurate stream, disable cache
Read offset correction : 48
Overread into Lead-In and Lead-Out : No
Used output format : C:\Program Files\FLAC\flac.exe   (User Defined Encoder)
                     320 kBit/s
                     Additional command line options : -8 -V -T "ARTIST=%a" -T "TITLE=%t" -T "ALBUM=%g" -T "DATE=%y" -T "TRACKNUMBER=%n" -T "GENRE=%m" -T "COMMENT=EAC FLAC -8" %s
Other options      :
    Fill up missing offset samples with silence : Yes
    Delete leading and trailing silent blocks : No
    Native Win32 interface for Win NT & 2000
Track  1
     Filename H:\[000] listed torrents\Falco - Emotional (1986) [FLAC]\01 - Emotional.wav
     Pre-gap length  0:00:02.00
     Peak level 81.5 %
     Track quality 100.0 %
     Test CRC 3B7C63E6
     Copy CRC 3B7C63E6
     Copy OK
Track  2
     Filename H:\[000] listed torrents\Falco - Emotional (1986) [FLAC]\02 - Kamikaze Cappa (Dedicated To Robert Cappa Who Died In Indochina).wav
     Pre-gap length  0:00:03.16
     Peak level 91.3 %
     Track quality 100.0 %
     Test CRC EED47D28
     Copy CRC EED47D28
     Copy OK
Track  3
     Filename H:\[000] listed torrents\Falco - Emotional (1986) [FLAC]\03 - Crime Time.wav
     Peak level 78.2 %
     Track quality 100.0 %
     Test CRC E21E8645
     Copy CRC E21E8645
     Copy OK
Track  4
     Filename H:\[000] listed torrents\Falco - Emotional (1986) [FLAC]\04 - Cowboyz And Indianz.wav
     Pre-gap length  0:00:03.29
     Peak level 81.5 %
     Track quality 100.0 %
     Test CRC 96ED8A56
     Copy CRC 96ED8A56
     Copy OK
Track  5
     Filename H:\[000] listed torrents\Falco - Emotional (1986) [FLAC]\05 - Coming Home (Jeanny Part II, One Year Later).wav
     Pre-gap length  0:00:03.96
     Peak level 70.7 %
     Track quality 100.0 %
     Test CRC 3A5898D0
     Copy CRC 3A5898D0
     Copy OK
Track  6
     Filename H:\[000] listed torrents\Falco - Emotional (1986) [FLAC]\06 - The Star Of Moon And Sun.wav
     Pre-gap length  0:00:00.86
     Peak level 78.4 %
     Track quality 100.0 %
     Test CRC D2FA27D4
     Copy CRC D2FA27D4
     Copy OK
Track  7
     Filename H:\[000] listed torrents\Falco - Emotional (1986) [FLAC]\07 - Les Nouveaux Riches.wav
     Pre-gap length  0:00:03.16
     Peak level 74.2 %
     Track quality 100.0 %
     Test CRC 40C163D9
     Copy CRC 40C163D9
     Copy OK
Track  8
     Filename H:\[000] listed torrents\Falco - Emotional (1986) [FLAC]\08 - The Sound Of Music.wav
     Pre-gap length  0:00:02.44
     Peak level 100.0 %
     Track quality 100.0 %
     Test CRC 7428F09B
     Copy CRC 7428F09B
     Copy OK
Track  9
     Filename H:\[000] listed torrents\Falco - Emotional (1986) [FLAC]\09 - The Kiss Of Kathleen Turner.wav
     Pre-gap length  0:00:04.17
     Peak level 69.1 %
     Track quality 100.0 %
     Test CRC 5D252D75
     Copy CRC 5D252D75
     Copy OK
No errors occured
End of status report

Содержимое индексной карты&#58;

REM ACCURATERIPID 000feb98-00756f24-7f0b5209
REM GENRE "New Wave"
REM DATE 1986
REM DISCID 7F0B5209
REM COMMENT "ExactAudioCopy v0.95b3"
PERFORMER "Falco"
TITLE "Emotional"
FILE "Falco - Emotional.flac" WAVE
  TRACK 01 AUDIO
    TITLE "Emotional"
    PERFORMER "Falco"
    INDEX 01 00:00:00
  TRACK 02 AUDIO
    TITLE "Kamikaze Cappa (Dedicated To Robert Cappa Who Died In Indochina)"
    PERFORMER "Falco"
    INDEX 00 04:52:08
    INDEX 01 04:55:20
  TRACK 03 AUDIO
    TITLE "Crime Time"
    PERFORMER "Falco"
    INDEX 01 10:04:68
  TRACK 04 AUDIO
    TITLE "Cowboyz And Indianz"
    PERFORMER "Falco"
    INDEX 00 14:27:33
    INDEX 01 14:30:55
  TRACK 05 AUDIO
    TITLE "Coming Home (Jeanny Part II, One Year Later)"
    PERFORMER "Falco"
    INDEX 00 20:16:33
    INDEX 01 20:20:30
  TRACK 06 AUDIO
    TITLE "The Star Of Moon And Sun"
    PERFORMER "Falco"
    INDEX 00 25:51:73
    INDEX 01 25:52:63
  TRACK 07 AUDIO
    TITLE "Les Nouveaux Riches"
    PERFORMER "Falco"
    INDEX 00 31:11:18
    INDEX 01 31:14:30
  TRACK 08 AUDIO
    TITLE "The Sound Of Music"
    PERFORMER "Falco"
    INDEX 00 35:44:25
    INDEX 01 35:46:58
  TRACK 09 AUDIO
    TITLE "The Kiss Of Kathleen Turner"
    PERFORMER "Falco"
    INDEX 00 40:42:70
    INDEX 01 40:47:08
-
Яндекс.Метрика
Рейтинг@Mail.ru