[ Сегодня на трекере фрилич! Идет свободное скачивание без начисления Download ]

2 Brothers On The 4th Floor - 2 (1996) [FLAC|Lossless]<Euro House, Eurodance>

 

Создавать темы 17-Дек-2014 11:57

-2 Brothers On The 4th Floor - 2 (1996)- Год: 1996
Жанр: Euro House, Eurodance
Продолжительность: 01:01:11
Кодек: FLAC
Битрейт: Lossless
Тип раздачи: image+.cue
Наличие сканов в содержимом раздачи: да
Страна-производитель диска: Sweden
Формат: CD, Album
Издатель (лейбл): Scandinavian Records
Номер по каталогу: SRCD 54153
Треклист:
01. Come Take My Hand (5:13)
02. There's A Key (3:57)
03. Fairytales (3:31)
04. One Day (3:19)
05. Fly (Through The Starry Night) (3:28)
06. All I Wanna Do (3:56)
07. Mirror Of Love (3:29)
08. Real-X (4:44)
09. Euro Megamix (6:08)
10. Happy Hardcore Megamix (4:32)
11. Come Take My Hand (Cooly's Jungle Mix) (5:23)
12. Fairytales (Charly Lownoise & Mental Theo Rave Edit) (4:08)
13. Mirror Of Love (Mastermindz Freaky R&B Mix) (4:08)
14. There's A Key (Dance Therapy Remixx) (5:16)

Отчёт ЕАС&#58;

Exact Audio Copy V0.99 prebeta 5 from 4. May 2009
Отчёт EAC об извлечении, выполненном 9. января 2010, 13:35
2 Brothers On The 4th Floor / 2
Дисковод: LITE-ON LTR-52327S   Adapter: 1  ID: 0
Режим чтения                 : Достоверность
Использование точного потока : Да
Отключение кэша аудио        : Да
Использование указателей C2  : Нет
Коррекция смещения при чтении                     : 6
Способность читать области Lead-in и Lead-out     : Нет
Заполнение пропущенных сэмплов тишиной            : Да
Удаление блоков с тишиной в начале и конце        : Нет
При вычислениях CRC использовались нулевые сэмплы : Да
Интерфейс                                         : Установленный внешний ASPI-интерфейс
Выходной формат : Внутренние WAV-операции
Формат сэмплов  : 44.100 Гц; 16 бит; стерео
TOC извлечённого CD
     Трек |   Старт  | Длительность | Начальный сектор | Конечный сектор
    ---------------------------------------------------------------------
       1  |  0:00.00 |    5:13.04   |           0      |      23478
       2  |  5:13.04 |    3:57.24   |       23479      |      41277
       3  |  9:10.28 |    3:30.49   |       41278      |      57076
       4  | 12:41.02 |    3:18.50   |       57077      |      71976
       5  | 15:59.52 |    3:27.51   |       71977      |      87552
       6  | 19:27.28 |    3:55.44   |       87553      |     105221
       7  | 23:22.72 |    3:29.36   |      105222      |     120932
       8  | 26:52.33 |    4:44.24   |      120933      |     142256
       9  | 31:36.57 |    6:07.68   |      142257      |     169849
      10  | 37:44.50 |    4:31.41   |      169850      |     190215
      11  | 42:16.16 |    5:23.05   |      190216      |     214445
      12  | 47:39.21 |    4:08.04   |      214446      |     233049
      13  | 51:47.25 |    4:08.36   |      233050      |     251685
      14  | 55:55.61 |    5:15.42   |      251686      |     275352
Характеристики диапазона извлечения и сообщения об ошибках
Выбранный диапазон
     Имя файла K:\Lossless Eurodance\!2 Brothers On The 4th Floor Lossless\Albums\1996 - 2 (FLAC-aZo)\2 Brothers On The 4th Floor - 2.wav
     Пиковый уровень 99.2 %
     Качество диапазона 100.0 %
     CRC теста 6D7BE12C
     CRC копии 6D7BE12C
     Копирование... OK
Ошибок не произошло
AccurateRip: сводка
Трек  1  точное извлечение (доверие 2)  [BB7DA74C]
Трек  2  точное извлечение (доверие 2)  [26E9C76C]
Трек  3  точное извлечение (доверие 2)  [88A471EC]
Трек  4  точное извлечение (доверие 2)  [C6C4A40D]
Трек  5  точное извлечение (доверие 2)  [E76A9376]
Трек  6  точное извлечение (доверие 2)  [36A36F83]
Трек  7  точное извлечение (доверие 2)  [D3955578]
Трек  8  точное извлечение (доверие 2)  [3861D35D]
Трек  9  точное извлечение (доверие 2)  [66FD02C8]
Трек 10  точное извлечение (доверие 2)  [F30BE0C1]
Трек 11  точное извлечение (доверие 2)  [F47E7DCC]
Трек 12  точное извлечение (доверие 2)  [4EA191F1]
Трек 13  точное извлечение (доверие 2)  [90FC802F]
Трек 14  точное извлечение (доверие 2)  [4DE2917D]
Все треки извлечены точно
Конец отчёта

Отчёт auCDtect&#58;

-----------------------
DON'T MODIFY THIS FILE
-----------------------
PERFORMER: auCDtect Task Manager, ver. 1.5.1RC4 build 1.5.1.5
Copyright (c) 2008-2010 y-soft. All rights reserved
http://y-soft.org
ANALYZER: auCDtect: CD records authenticity detector, version 0.8.2
Copyright (c) 2004 Oleg Berngardt. All rights reserved.
Copyright (c) 2004 Alexander Djourik. All rights reserved.
FILE: 2 Brothers On The 4th Floor - 2.flac
  Size: 436197456 Hash: D3B1C574515A6325576214EDFBBD96EE Accuracy: -m0
  Conclusion: CDDA 100%
  Signature: 3B3C0F7A15BD116E434B6D5C7D5CA248DC77F87C
-
Яндекс.Метрика
Рейтинг@Mail.ru