Inna - New Hot Edition (2010) [FLAC|Lossless]<Pop Dance House>

 

Создавать темы 17-Дек-2014 11:57

-Inna - New Hot Edition (2010)- Год: 2010
Жанр: Pop Dance House
Продолжительность: 00:53:16
Кодек: FLAC
Битрейт: Lossless
Тип битрейта: VBR
Трек лист:
01. 10 Minutes (3:19)
02. Hot (3:40)
03. Love (3:39)
04. Days Nights (3:28)
05. Fever (3:24)
06. Left Right (4:32)
07. Amazing (Buzz Junkies Radio Edit) (3:32)
08. Don't Let The Music Die (3:38]
09. On & On (4:39)
10. Ladies (5:11)
11. July (4:00)
12. Deja Vu (Wideboy Stadium Radio Edit) (Bob Taylor feat. Inna) (3:19)
13. I Need You For Christmas (Bonus Track) (2:44)
14. 10 Minutes (Club Mix By Play & Win) (Bonus Track) (4:09)
+ Бонус 2 клипа:
1.Inna - 10 Minutes (00:03:31)
Видеокодек: DivX
Видео: ~3527 kb/s 1920х1080
Качество видео: DVDrip
Аудио: MP3 320 kb/s CBR
2.Inna - Amazing (00:03:25)
Видеокодек: DivX
Видео: ~2475 kb/s 1280х720
Качество видео: DVDrip
Аудио: MP3 320 kb/s CBR

Отчёт ЕАС&#58;

Exact Audio Copy V1.0 beta 1 from 15. November 2010
EAC extraction logfile from 10. February 2011, 21:07
Inna / New Hot Edition
Used drive  : Optiarc DVD RW AD-7200S   Adapter: 5  ID: 0
Read mode               : Secure
Utilize accurate stream : Yes
Defeat audio cache      : Yes
Make use of C2 pointers : No
Read offset correction                      : 48
Overread into Lead-In and Lead-Out          : No
Fill up missing offset samples with silence : Yes
Delete leading and trailing silent blocks   : No
Null samples used in CRC calculations       : Yes
Used interface                              : Native Win32 interface for Win NT & 2000
Gap handling                                : Appended to previous track
Used output format              : User Defined Encoder
Selected bitrate                : 768 kBit/s
Quality                         : High
Add ID3 tag                     : No
Command line compressor         : C:\Program Files\Exact Audio Copy\Flac\flac.exe
Additional command line options : -V -8 -T "artist=%a" -T "title=%t" -T "album=%g" -T "date=%y" -T "tracknumber=%n" -T "genre=%m" %s
TOC of the extracted CD
     Track |   Start  |  Length  | Start sector | End sector
    ---------------------------------------------------------
        1  |  0:00.00 |  3:19.29 |         0    |    14953
        2  |  3:19.29 |  3:40.24 |     14954    |    31477
        3  |  6:59.53 |  3:39.29 |     31478    |    47931
        4  | 10:39.07 |  3:28.20 |     47932    |    63551
        5  | 14:07.27 |  3:24.29 |     63552    |    78880
        6  | 17:31.56 |  4:31.66 |     78881    |    99271
        7  | 22:03.47 |  3:31.38 |     99272    |   115134
        8  | 25:35.10 |  3:37.64 |    115135    |   131473
        9  | 29:12.74 |  4:39.29 |    131474    |   152427
       10  | 33:52.28 |  5:11.19 |    152428    |   175771
       11  | 39:03.47 |  3:59.59 |    175772    |   193755
       12  | 43:03.31 |  3:19.29 |    193756    |   208709
       13  | 46:22.60 |  2:44.10 |    208710    |   221019
       14  | 49:06.70 |  4:09.22 |    221020    |   239716
       15  | 55:48.17 | 18:57.10 |    251117    |   336401
Track  1
     Filename D:\01. Inna - 10 Minutes.wav
     Pre-gap length  0:00:02.00
     Peak level 100.0 %
     Extraction speed 2.4 X
     Track quality 100.0 %
     Test CRC FADF49B4
     Copy CRC FADF49B4
     Track not present in AccurateRip database
     Copy OK
Track  2
     Filename D:\02. Inna - Hot.wav
     Peak level 100.0 %
     Extraction speed 2.7 X
     Track quality 100.0 %
     Test CRC 52BE019B
     Copy CRC 52BE019B
     Track not present in AccurateRip database
     Copy OK
Track  3
     Filename D:\03. Inna - Love.wav
     Peak level 100.0 %
     Extraction speed 2.9 X
     Track quality 100.0 %
     Test CRC F40E2679
     Copy CRC F40E2679
     Track not present in AccurateRip database
     Copy OK
Track  4
     Filename D:\04. Inna - Days Nights.wav
     Peak level 100.0 %
     Extraction speed 3.1 X
     Track quality 100.0 %
     Test CRC E6DA9021
     Copy CRC E6DA9021
     Track not present in AccurateRip database
     Copy OK
Track  5
     Filename D:\05. Inna - Fever.wav
     Peak level 100.0 %
     Extraction speed 3.2 X
     Track quality 100.0 %
     Test CRC A6D54374
     Copy CRC A6D54374
     Track not present in AccurateRip database
     Copy OK
Track  6
     Filename D:\06. Inna - Left Right.wav
     Peak level 100.0 %
     Extraction speed 3.5 X
     Track quality 100.0 %
     Test CRC 1FCAF0A1
     Copy CRC 1FCAF0A1
     Track not present in AccurateRip database
     Copy OK
Track  7
     Filename D:\07. Inna - Amazing (Buzz Junkies Radio Edit).wav
     Peak level 98.7 %
     Extraction speed 3.1 X
     Track quality 99.9 %
     Test CRC AF94C76D
     Copy CRC AF94C76D
     Track not present in AccurateRip database
     Copy OK
Track  8
     Filename D:\08. Inna - Don't Let The Music Die.wav
     Peak level 100.0 %
     Extraction speed 3.7 X
     Track quality 100.0 %
     Test CRC 3AB35511
     Copy CRC 3AB35511
     Track not present in AccurateRip database
     Copy OK
Track  9
     Filename D:\09. Inna - On & On.wav
     Peak level 100.0 %
     Extraction speed 4.1 X
     Track quality 100.0 %
     Test CRC 5E6A43C1
     Copy CRC 5E6A43C1
     Track not present in AccurateRip database
     Copy OK
Track 10
     Filename D:\10. Inna - Ladies.wav
     Peak level 100.0 %
     Extraction speed 4.3 X
     Track quality 100.0 %
     Test CRC BCB909FC
     Copy CRC BCB909FC
     Track not present in AccurateRip database
     Copy OK
Track 11
     Filename D:\11. Inna - July.wav
     Peak level 100.0 %
     Extraction speed 4.3 X
     Track quality 100.0 %
     Test CRC 67F41666
     Copy CRC 67F41666
     Track not present in AccurateRip database
     Copy OK
Track 12
     Filename D:\12. Inna - Deja Vu (Wideboy Stadium Radio Edit) (Bob Taylor feat. Inna).wav
     Peak level 94.9 %
     Extraction speed 4.4 X
     Track quality 100.0 %
     Test CRC AA763328
     Copy CRC AA763328
     Track not present in AccurateRip database
     Copy OK
Track 13
     Filename D:\13. Inna - I Need You For Christmas (Bonus Track).wav
     Peak level 98.8 %
     Extraction speed 3.5 X
     Track quality 99.9 %
     Test CRC 9DC1F418
     Copy CRC 9DC1F418
     Track not present in AccurateRip database
     Copy OK
Track 14
     Filename D:\14. Inna - 10 Minutes (Club Mix By Play & Win) (Bonus Track).wav
     Peak level 100.0 %
     Extraction speed 4.7 X
     Track quality 100.0 %
     Test CRC 42C5809E
     Copy CRC 42C5809E
     Track not present in AccurateRip database
     Copy OK
None of the tracks are present in the AccurateRip database
No errors occurred
End of status report

Отчёт Audiochecker&#58;

AUDIOCHECKER v2.0 beta (build 457) - by Dester - [url=mailto:[email protected]][email protected][/url]
~~~~~~~~~~~~~~~~~~~~~~~~~~~~~~~~~~
-=== DO NOT EDIT THIS FILE! ===-
Path: ...\Inna - New Hot Edition (2010)
01 -=- 01. Inna - 10 Minutes.flac -=- CDDA (99%)
02 -=- 02. Inna - Hot.flac -=- CDDA (100%)
03 -=- 03. Inna - Love.flac -=- CDDA (99%)
04 -=- 04. Inna - Days Nights.flac -=- CDDA (99%)
05 -=- 05. Inna - Fever.flac -=- CDDA (100%)
06 -=- 06. Inna - Left Right.flac -=- CDDA (100%)
07 -=- 07. Inna - Amazing (Buzz Junkies Radio Edit).flac -=- CDDA (100%)
08 -=- 08. Inna - Don't Let The Music Die.flac -=- CDDA (100%)
09 -=- 09. Inna - On & On.flac -=- CDDA (100%)
10 -=- 10. Inna - Ladies.flac -=- CDDA (100%)
11 -=- 11. Inna - July.flac -=- MPEG (95%)
12 -=- 12. Inna - Deja Vu (Wideboy Stadium Radio Edit) (Bob Taylor feat. Inna).flac -=- CDDA (100%)
13 -=- 13. Inna - I Need You For Christmas (Bonus Track).flac -=- CDDA (100%)
14 -=- 14. Inna - 10 Minutes (Club Mix By Play & Win) (Bonus Track).flac -=- MPEG (95%)
Summary 86,21% CDDA
91249508

Mediainfo&#58;

General
Complete name : G:\Inna - New Hot Edition (2010)\01. Inna - 10 Minutes.flac
Format : FLAC
Format/Info : Free Lossless Audio Codec
File size : 26.3 MiB
Duration : 3mn 19s
Overall bit rate : 1 108 Kbps
Album : New Hot Edition
Track name : 10 Minutes
Track name/Position : 01
Performer : Inna
Genre : House
Recorded date : 2010
Audio
Format : FLAC
Format/Info : Free Lossless Audio Codec
Duration : 3mn 19s
Bit rate mode : Variable
Bit rate : 1 107 Kbps
Channel(s) : 2 channels
Sampling rate : 44.1 KHz
Resolution : 16 bits
Stream size : 26.3 MiB (100%)
Writing library : libFLAC 1.2.1 (UTC 2007-09-17)

Отчёт auCDtect Task manager&#58;

-----------------------
DON'T MODIFY THIS FILE
-----------------------
PERFORMER: auCDtect Task Manager, ver. 1.5.1RC4 build 1.5.1.5
Copyright (c) 2008-2010 y-soft. All rights reserved
http://y-soft.org
ANALYZER: auCDtect: CD records authenticity detector, version 0.8.2
Copyright (c) 2004 Oleg Berngardt. All rights reserved.
Copyright (c) 2004 Alexander Djourik. All rights reserved.
FILE: 14. Inna - 10 Minutes (Club Mix By Play & Win) (Bonus Track).flac
  Size: 32286321 Hash: 6AB15BC2F720E4B3A13953CF9589A249 Accuracy: -m0
  Conclusion: MPEG 95%
  Signature: A1FE69C2718CFEBB2EB80CDEBF512B501F1612E7
FILE: 13. Inna - I Need You For Christmas (Bonus Track).flac
  Size: 19862893 Hash: 5B6E3B163C2C2520841234DE6EAC8877 Accuracy: -m0
  Conclusion: CDDA 100%
  Signature: 2431187D3B9D60565A2AD73EAE445643A26F1E4E
FILE: 12. Inna - Deja Vu (Wideboy Stadium Radio Edit) (Bob Taylor feat. Inna).flac
  Size: 27025720 Hash: 62D95797920A3B886EB8B37FC7387F83 Accuracy: -m0
  Conclusion: CDDA 100%
  Signature: A52EDDF7625945A9593331EA20818A0A16FA1911
FILE: 11. Inna - July.flac
  Size: 24299130 Hash: F5E7D0070B58D1E682E56BD294B73F16 Accuracy: -m0
  Conclusion: MPEG 95%
  Signature: 8DBDC1F7C3A8C010169D396A882F04A9DBE6DD72
FILE: 10. Inna - Ladies.flac
  Size: 36728482 Hash: 883211162D9E50D158587C1E894D18F5 Accuracy: -m0
  Conclusion: CDDA 100%
  Signature: BECF748C5DBE5212A38D5FB727F7B8C13AFA5C3E
FILE: 09. Inna - On & On.flac
  Size: 31625623 Hash: 60E1D7B28C88DA03142D86EAFE7E7755 Accuracy: -m0
  Conclusion: CDDA 100%
  Signature: A8E5643ED64D3D683C1F9A97409E5F97131D745C
FILE: 08. Inna - Don't Let The Music Die.flac
  Size: 25786635 Hash: 157E28CE97C7626E61335FF58E1C5AAA Accuracy: -m0
  Conclusion: CDDA 100%
  Signature: 1BA0627C6FF9BECEA109D151B04D047ACCCEA9FB
FILE: 07. Inna - Amazing (Buzz Junkies Radio Edit).flac
  Size: 28277854 Hash: 24B9131368A8CA6F156433CCA7F433D2 Accuracy: -m0
  Conclusion: CDDA 100%
  Signature: 54CE7D4DEDCC652B0E27C7BE3AC57E81A663FBE3
FILE: 06. Inna - Left Right.flac
  Size: 29182344 Hash: 892B295CE5B1EE99EEEC7F0306DC67A0 Accuracy: -m0
  Conclusion: CDDA 100%
  Signature: B644F21976AD78AE2BCBE3F475DB571DBC3F5DF2
FILE: 05. Inna - Fever.flac
  Size: 24178322 Hash: DE7C45FA088366D6E76609D2E6B35E4A Accuracy: -m0
  Conclusion: CDDA 100%
  Signature: 9688C82C5F083AFA7CBB891725215B193559663F
FILE: 04. Inna - Days Nights.flac
  Size: 23851121 Hash: 06E54A6541963C2B5AB7D05E18E57062 Accuracy: -m0
  Conclusion: CDDA 99%
  Signature: 25E72FE0793CAB4A3FB64AC69BCE434CD65BD64B
FILE: 03. Inna - Love.flac
  Size: 26699730 Hash: C007DBEA0EC8527D6644C42F2B3F824E Accuracy: -m0
  Conclusion: CDDA 99%
  Signature: 00D2DA0D2CF01828D8D3D5ECB286205B6FFE8563
FILE: 02. Inna - Hot.flac
  Size: 26256713 Hash: 5A2E5A614FFC8106CCC12C616E4DB852 Accuracy: -m0
  Conclusion: CDDA 100%
  Signature: F949823E8E744FFDA368DB018DB868B54CF8C38A
FILE: 01. Inna - 10 Minutes.flac
  Size: 27608906 Hash: 0662B7CCA1C8C3CC3809752AF97DDE32 Accuracy: -m0
  Conclusion: CDDA 99%
  Signature: 07FA2C13BD0D9BC8A69A348377E06911BB3D36FB
-
Яндекс.Метрика
Рейтинг@Mail.ru