[ Сегодня на трекере фрилич! Идет свободное скачивание без начисления Download ]

2 Brothers On The 4th Floor - Dreams (1994) [FLAC|Lossless]<Euro House, Eurodance>

 

Создавать темы 17-Дек-2014 11:56

-2 Brothers On The 4th Floor - Dreams (1994)- Год: 1994
Жанр: Euro House, Eurodance
Продолжительность: 00:58:56
Кодек: FLAC
Битрейт: Lossless
Тип раздачи: image+.cue
Наличие сканов в содержимом раздачи: да
Страна-производитель диска: Netherlands
Формат: CD, Album
Издатель (лейбл): Lowland Records
Номер по каталогу: 2001087
Треклист:
01. Dreams (Will Come Alive) (4:25)
02. Never Alone (5:52)
03. I Can't Believe It (4:10)
04. Let Me Be Free (3:26)
05. Feel So Good (3:45)
06. Do It (3:27)
07. Dance With Me (4:10)
08. Smile (3:36)
09. Can't Help Myself (5:17)
10. Turn Da Music Up (4:39)
11. Dreams (Twenty 4 Seven Trance Mix) (5:49)
12. Never Alone (Beats 'R' Us Mix) (5:23)
13. Turn Da Music Up (Beats 'R' Us Mix) (4:56)

Отчёт ЕАС&#58;

Exact Audio Copy V0.99 prebeta 5 from 4. May 2009
Отчёт EAC об извлечении, выполненном 8. января 2010, 18:45
2 Brothers On The 4th Floor / Dreams
Дисковод: LITE-ON LTR-52327S   Adapter: 1  ID: 0
Режим чтения                 : Достоверность
Использование точного потока : Да
Отключение кэша аудио        : Да
Использование указателей C2  : Нет
Коррекция смещения при чтении                     : 6
Способность читать области Lead-in и Lead-out     : Нет
Заполнение пропущенных сэмплов тишиной            : Да
Удаление блоков с тишиной в начале и конце        : Нет
При вычислениях CRC использовались нулевые сэмплы : Да
Интерфейс                                         : Установленный внешний ASPI-интерфейс
Выходной формат : Внутренние WAV-операции
Формат сэмплов  : 44.100 Гц; 16 бит; стерео
TOC извлечённого CD
     Трек |   Старт  | Длительность | Начальный сектор | Конечный сектор
    ---------------------------------------------------------------------
       1  |  0:00.00 |    4:25.00   |           0      |      19874
       2  |  4:25.00 |    5:52.02   |       19875      |      46276
       3  | 10:17.02 |    4:09.73   |       46277      |      65024
       4  | 14:27.00 |    3:26.37   |       65025      |      80511
       5  | 17:53.37 |    3:45.10   |       80512      |      97396
       6  | 21:38.47 |    3:26.65   |       97397      |     112911
       7  | 25:05.37 |    4:10.18   |      112912      |     131679
       8  | 29:15.55 |    3:36.22   |      131680      |     147901
       9  | 32:52.02 |    5:17.00   |      147902      |     171676
      10  | 38:09.02 |    4:38.38   |      171677      |     192564
      11  | 42:47.40 |    5:49.35   |      192565      |     218774
      12  | 48:37.00 |    5:23.02   |      218775      |     243001
      13  | 54:00.02 |    4:56.20   |      243002      |     265221
Характеристики диапазона извлечения и сообщения об ошибках
Выбранный диапазон
     Имя файла K:\Lossless Eurodance\!2 Brothers On The 4th Floor Lossless\Albums\1994 - Dreams (FLAC-aZo)\2 Brothers On The 4th Floor - Dreams.wav
     Пиковый уровень 100.0 %
     Качество диапазона 100.0 %
     CRC теста F9DB36B6
     CRC копии F9DB36B6
     Копирование... OK
Ошибок не произошло
AccurateRip: сводка
Трек  1  точное извлечение (доверие 6)  [42750A2C]
Трек  2  точное извлечение (доверие 6)  [3150467F]
Трек  3  точное извлечение (доверие 6)  [59217741]
Трек  4  точное извлечение (доверие 6)  [C2231D89]
Трек  5  точное извлечение (доверие 7)  [DA8436C1]
Трек  6  точное извлечение (доверие 6)  [7F56AA4B]
Трек  7  точное извлечение (доверие 6)  [728C7A62]
Трек  8  точное извлечение (доверие 6)  [D4DF496E]
Трек  9  точное извлечение (доверие 6)  [BCFBF108]
Трек 10  точное извлечение (доверие 6)  [49900D9C]
Трек 11  точное извлечение (доверие 6)  [747C0DAC]
Трек 12  точное извлечение (доверие 6)  [0E065F32]
Трек 13  точное извлечение (доверие 6)  [7114371C]
Все треки извлечены точно
Конец отчёта

Отчёт AuCDtect&#58;

-----------------------
DON'T MODIFY THIS FILE
-----------------------
PERFORMER: auCDtect Task Manager, ver. 1.5.1RC4 build 1.5.1.5
Copyright (c) 2008-2010 y-soft. All rights reserved
http://y-soft.org
ANALYZER: auCDtect: CD records authenticity detector, version 0.8.2
Copyright (c) 2004 Oleg Berngardt. All rights reserved.
Copyright (c) 2004 Alexander Djourik. All rights reserved.
FILE: 2 Brothers On The 4th Floor - Dreams.flac
  Size: 423819497 Hash: AD8F8B99506DC48EFA31EBB2E320A7E8 Accuracy: -m0
  Conclusion: CDDA 100%
  Signature: 75D11CDAAF98CC95D5B93F5418F9871FD565D63F
-
Яндекс.Метрика
Рейтинг@Mail.ru