Duran Duran - All You Need Is Now (2011)[FLAC|Lossless]<Synthpop>

 

Создавать темы 17-Дек-2014 11:56

-Duran Duran - All You Need Is Now (2011)- Год:2011
Издание: Tape Modern, EU
Жанр: Synthpop
Продолжительность: 01:00:11
Кодек: FLAC
Тип рипа: Tracks+.cue
Битрейт: Lossless
Трек лист:
01. All You Need Is Now (4:34)
02. Blame The Machines (4:10)
03. Being Followed (3:50)
04. Leave A Light On (4:38)
05. Safe (In The Heat Of The Moment) (4:01)
06. Girl Panic! (4:35)
07. A Diamond In The Mind (1:18)
08. The Man Who Stole A Leopard (6:15)
09. Other People's Lives (3:46)
10. Mediterranea (5:40)
11. Too Bad You're So Beautiful (4:56)
12. Runway Runaway (3:07)
13. Return To Now (1:36)
14. Before The Rain (4:35)
15. Networker Nation (3:10)

Содержание индексной карты&#58;

REM DATE 2011
REM DISCID C00E1A0F
REM COMMENT "ExactAudioCopy v1.0b1"
FILE "Duran Duran - All You Need Is Now [deluxe]\01 - All You Need Is Now.flac" WAVE
  TRACK 01 AUDIO
    INDEX 01 00:00:00
FILE "Duran Duran - All You Need Is Now [deluxe]\02 - Blame The Machines.flac" WAVE
  TRACK 02 AUDIO
    INDEX 01 00:00:00
FILE "Duran Duran - All You Need Is Now [deluxe]\03 - Being Followed.flac" WAVE
  TRACK 03 AUDIO
    INDEX 01 00:00:00
FILE "Duran Duran - All You Need Is Now [deluxe]\04 - Leave A Light On.flac" WAVE
  TRACK 04 AUDIO
    INDEX 01 00:00:00
FILE "Duran Duran - All You Need Is Now [deluxe]\05 - Safe (In The Heat Of The Moment).flac" WAVE
  TRACK 05 AUDIO
    INDEX 01 00:00:00
FILE "Duran Duran - All You Need Is Now [deluxe]\06 - Girl Panic!.flac" WAVE
  TRACK 06 AUDIO
    INDEX 01 00:00:00
FILE "Duran Duran - All You Need Is Now [deluxe]\07 - A Diamond In The Mind.flac" WAVE
  TRACK 07 AUDIO
    INDEX 01 00:00:00
FILE "Duran Duran - All You Need Is Now [deluxe]\08 - The Man Who Stole A Leopard.flac" WAVE
  TRACK 08 AUDIO
    INDEX 01 00:00:00
FILE "Duran Duran - All You Need Is Now [deluxe]\09 - Other People's Lives.flac" WAVE
  TRACK 09 AUDIO
    INDEX 01 00:00:00
FILE "Duran Duran - All You Need Is Now [deluxe]\10 - Mediterranea.flac" WAVE
  TRACK 10 AUDIO
    INDEX 01 00:00:00
FILE "Duran Duran - All You Need Is Now [deluxe]\11 - Too Bad You're So Beautiful.flac" WAVE
  TRACK 11 AUDIO
    INDEX 01 00:00:00
FILE "Duran Duran - All You Need Is Now [deluxe]\12 - Runway Runaway.flac" WAVE
  TRACK 12 AUDIO
    INDEX 01 00:00:00
FILE "Duran Duran - All You Need Is Now [deluxe]\13 - Return To Now.flac" WAVE
  TRACK 13 AUDIO
    INDEX 01 00:00:00
FILE "Duran Duran - All You Need Is Now [deluxe]\14 - Before The Rain.flac" WAVE
  TRACK 14 AUDIO
    INDEX 01 00:00:00
  TRACK 15 AUDIO
    INDEX 00 04:25:20
FILE "Duran Duran - All You Need Is Now [deluxe]\15 - Networker Nation.flac" WAVE
    INDEX 01 00:00:00

Отчёт EAC&#58;

Exact Audio Copy V1.0 beta 1 from 15. November 2010
EAC extraction logfile from 21. March 2011, 12:48
Duran Duran / All You Need Is Now [deluxe]
Used drive  : PLDS    DVD-ROM DH-16D2S   Adapter: 1  ID: 0
Read mode               : Secure
Utilize accurate stream : Yes
Defeat audio cache      : Yes
Make use of C2 pointers : No
Read offset correction                      : 6
Overread into Lead-In and Lead-Out          : No
Fill up missing offset samples with silence : Yes
Delete leading and trailing silent blocks   : No
Null samples used in CRC calculations       : Yes
Used interface                              : Native Win32 interface for Win NT & 2000
Gap handling                                : Appended to previous track
Used output format              : User Defined Encoder
Selected bitrate                : 768 kBit/s
Quality                         : High
Add ID3 tag                     : No
Command line compressor         : C:\Program Files\Exact Audio Copy\Flac\flac.exe
Additional command line options : -V -8 -T "artist=%a" -T "title=%t" -T "album=%g" -T "date=%y" -T "tracknumber=%n" -T "genre=%m" %s
TOC of the extracted CD
     Track |   Start  |  Length  | Start sector | End sector
    ---------------------------------------------------------
        1  |  0:00.00 |  4:33.67 |         0    |    20541
        2  |  4:33.67 |  4:09.40 |     20542    |    39256
        3  |  8:43.32 |  3:49.64 |     39257    |    56495
        4  | 12:33.21 |  4:38.00 |     56496    |    77345
        5  | 17:11.21 |  4:01.19 |     77346    |    95439
        6  | 21:12.40 |  4:34.51 |     95440    |   116040
        7  | 25:47.16 |  1:18.06 |    116041    |   121896
        8  | 27:05.22 |  6:14.43 |    121897    |   149989
        9  | 33:19.65 |  3:45.70 |    149990    |   166934
       10  | 37:05.60 |  5:40.34 |    166935    |   192468
       11  | 42:46.19 |  4:55.43 |    192469    |   214636
       12  | 47:41.62 |  3:07.34 |    214637    |   228695
       13  | 50:49.21 |  1:36.07 |    228696    |   235902
       14  | 52:25.28 |  4:35.21 |    235903    |   256548
       15  | 57:00.49 |  3:09.73 |    256549    |   270796
Track  1
     Filename C:\RIPS\Duran Duran - All You Need Is Now [deluxe]\01 - All You Need Is Now.wav
     Pre-gap length  0:00:02.00
     Peak level 97.7 %
     Extraction speed 5.0 X
     Track quality 100.0 %
     Test CRC 02284BE7
     Copy CRC 02284BE7
     Copy OK
Track  2
     Filename C:\RIPS\Duran Duran - All You Need Is Now [deluxe]\02 - Blame The Machines.wav
     Peak level 97.7 %
     Extraction speed 5.5 X
     Track quality 100.0 %
     Test CRC 187B9EDE
     Copy CRC 187B9EDE
     Copy OK
Track  3
     Filename C:\RIPS\Duran Duran - All You Need Is Now [deluxe]\03 - Being Followed.wav
     Peak level 97.7 %
     Extraction speed 5.7 X
     Track quality 100.0 %
     Test CRC A232EB76
     Copy CRC A232EB76
     Copy OK
Track  4
     Filename C:\RIPS\Duran Duran - All You Need Is Now [deluxe]\04 - Leave A Light On.wav
     Peak level 97.7 %
     Extraction speed 6.4 X
     Track quality 100.0 %
     Test CRC 03A1E21B
     Copy CRC 03A1E21B
     Copy OK
Track  5
     Filename C:\RIPS\Duran Duran - All You Need Is Now [deluxe]\05 - Safe (In The Heat Of The Moment).wav
     Peak level 97.7 %
     Extraction speed 6.6 X
     Track quality 100.0 %
     Test CRC D52CBE36
     Copy CRC D52CBE36
     Copy OK
Track  6
     Filename C:\RIPS\Duran Duran - All You Need Is Now [deluxe]\06 - Girl Panic!.wav
     Peak level 97.7 %
     Extraction speed 7.1 X
     Track quality 100.0 %
     Test CRC 97B4AB15
     Copy CRC 97B4AB15
     Copy OK
Track  7
     Filename C:\RIPS\Duran Duran - All You Need Is Now [deluxe]\07 - A Diamond In The Mind.wav
     Peak level 83.2 %
     Extraction speed 5.5 X
     Track quality 100.0 %
     Test CRC 27E6CF2B
     Copy CRC 27E6CF2B
     Copy OK
Track  8
     Filename C:\RIPS\Duran Duran - All You Need Is Now [deluxe]\08 - The Man Who Stole A Leopard.wav
     Peak level 97.7 %
     Extraction speed 6.9 X
     Track quality 99.9 %
     Test CRC 4380B9F3
     Copy CRC 4380B9F3
     Copy OK
Track  9
     Filename C:\RIPS\Duran Duran - All You Need Is Now [deluxe]\09 - Other People's Lives.wav
     Peak level 97.7 %
     Extraction speed 7.8 X
     Track quality 100.0 %
     Test CRC E6F9FE7D
     Copy CRC E6F9FE7D
     Copy OK
Track 10
     Filename C:\RIPS\Duran Duran - All You Need Is Now [deluxe]\10 - Mediterranea.wav
     Peak level 97.7 %
     Extraction speed 8.5 X
     Track quality 100.0 %
     Test CRC 906FF44F
     Copy CRC 906FF44F
     Copy OK
Track 11
     Filename C:\RIPS\Duran Duran - All You Need Is Now [deluxe]\11 - Too Bad You're So Beautiful.wav
     Peak level 97.7 %
     Extraction speed 8.7 X
     Track quality 100.0 %
     Test CRC 349FCDF9
     Copy CRC 349FCDF9
     Copy OK
Track 12
     Filename C:\RIPS\Duran Duran - All You Need Is Now [deluxe]\12 - Runway Runaway.wav
     Peak level 97.7 %
     Extraction speed 8.4 X
     Track quality 100.0 %
     Test CRC 3F38065E
     Copy CRC 3F38065E
     Copy OK
Track 13
     Filename C:\RIPS\Duran Duran - All You Need Is Now [deluxe]\13 - Return To Now.wav
     Peak level 64.0 %
     Extraction speed 7.3 X
     Track quality 100.0 %
     Test CRC 9F2C4739
     Copy CRC 9F2C4739
     Copy OK
Track 14
     Filename C:\RIPS\Duran Duran - All You Need Is Now [deluxe]\14 - Before The Rain.wav
     Peak level 97.7 %
     Extraction speed 7.7 X
     Track quality 99.9 %
     Test CRC 26C10FE6
     Copy CRC 26C10FE6
     Copy OK
Track 15
     Filename C:\RIPS\Duran Duran - All You Need Is Now [deluxe]\15 - Networker Nation.wav
     Pre-gap length  0:00:10.01
     Peak level 97.7 %
     Extraction speed 8.7 X
     Track quality 100.0 %
     Test CRC 36B43421
     Copy CRC 36B43421
     Copy OK
No errors occurred
End of status report
==== Log checksum 521DC9EFF45119FFB7223E5CB8DA9B1FA0ECA3EAC3F1A32A89F01B8B62B266E9 ====

Отчёт auCDtect Task Manager&#58;

-----------------------
DON'T MODIFY THIS FILE
-----------------------
PERFORMER: auCDtect Task Manager, ver. 1.5.1RC4 build 1.5.1.5
Copyright (c) 2008-2010 y-soft. All rights reserved
http://y-soft.org
ANALYZER: auCDtect: CD records authenticity detector, version 0.8.2
Copyright (c) 2004 Oleg Berngardt. All rights reserved.
Copyright (c) 2004 Alexander Djourik. All rights reserved.
FILE: 15 - Networker Nation.flac
  Size: 24916546 Hash: 26C78FE835D7C896DB5747989AA25FB7 Accuracy: -m0
  Conclusion: CDDA 100%
  Signature: 9EF2D4DE70B663182E8299AF3DD00FD38433B6A7
FILE: 14 - Before The Rain.flac
  Size: 31040727 Hash: 92B20ED938234FFBAE8BAC81F238D991 Accuracy: -m0
  Conclusion: CDDA 100%
  Signature: B7D99F2A8420AEA290199B9069846033AA685BC8
FILE: 13 - Return To Now.flac
  Size: 8436252 Hash: 4462122BB17CB4E537EAB612C2099583 Accuracy: -m0
  Conclusion: CDDA 100%
  Signature: A802C584AC60D79B329C70832ED5BF5B6BDB5BA0
FILE: 12 - Runway Runaway.flac
  Size: 24895094 Hash: 1F1B367CE43047BAE7A43A36704AA4C4 Accuracy: -m0
  Conclusion: CDDA 100%
  Signature: 938FDCF5BE5248C3D332F8857257BB83543B057C
FILE: 11 - Too Bad Youre So Beautiful.flac
  Size: 38503821 Hash: 01683BE6ED8A3B0C55321136E06610A5 Accuracy: -m0
  Conclusion: CDDA 100%
  Signature: B97B2A236DC31893BFDDBEEB7CB7929572A40E8A
FILE: 10 - Mediterranea.flac
  Size: 42630799 Hash: EC3B98FCD4FBC4368F0FF3B1851E74C9 Accuracy: -m0
  Conclusion: CDDA 100%
  Signature: 1A2F9FECFB736BB75FC09E634BBD9E8445D122B4
FILE: 09 - Other Peoples Lives.flac
  Size: 30624975 Hash: BE8C9933FB83570DD2DEE80B682D3B13 Accuracy: -m0
  Conclusion: CDDA 100%
  Signature: FAEF2213AA97F07E3BF3436988C63FB63D439F1E
FILE: 08 - The Man Who Stole A Leopard.flac
  Size: 45368060 Hash: D48512CAFD0679C4BD0F9D1BC6C78A9B Accuracy: -m0
  Conclusion: CDDA 100%
  Signature: CEBBFF9925ECDC23AA40639A30A8ED432DE14C79
FILE: 07 - A Diamond In The Mind.flac
  Size: 6504125 Hash: 58A88364F1C75BFAEF24DB4D7C8B8A50 Accuracy: -m0
  Conclusion: CDDA 100%
  Signature: E348C70010FD2987E1A5BEA5587768158AAB1813
FILE: 06 - Girl Panic!.flac
  Size: 36044458 Hash: 36F0BBD564555C45605A7559052B76D0 Accuracy: -m0
  Conclusion: CDDA 100%
  Signature: AED264CFE9D6550EE4AB526EF968B2BC0A5F9AD0
FILE: 05 - Safe (In The Heat Of The Moment).flac
  Size: 29928785 Hash: 7B23833FE75B03DEBC491E5231D610E4 Accuracy: -m0
  Conclusion: CDDA 100%
  Signature: A8A3557719315AAA39575DDB04D6907DA701AD4D
FILE: 04 - Leave A Light On.flac
  Size: 33568543 Hash: 384B1A0C878D26AEAA9A873002E93A88 Accuracy: -m0
  Conclusion: CDDA 100%
  Signature: 1F5870C3C891C399BD8AAD5E03C4EA3B3D64AF27
FILE: 03 - Being Followed.flac
  Size: 29501076 Hash: CF7DC746F06676CACAA9AE578A2E9DDB Accuracy: -m0
  Conclusion: CDDA 100%
  Signature: 854A276875958A7D49A42A5467AE043EEEF03EE0
FILE: 02 - Blame The Machines.flac
  Size: 31947927 Hash: D98817B73407FA43B49F1B89A0C86DC2 Accuracy: -m0
  Conclusion: CDDA 99%
  Signature: 0C52377ECAC4B6977FD369F756ADCC4115F648B1
FILE: 01 - All You Need Is Now.flac
  Size: 36131915 Hash: 5A87636BA2E95E24DB8526203E29D4F8 Accuracy: -m0
  Conclusion: CDDA 100%
  Signature: 6B6DDDC7B819E23B18CD00439AD8BA20CDB172AB
-
Яндекс.Метрика
Рейтинг@Mail.ru