[ Сегодня на трекере фрилич! Идет свободное скачивание без начисления Download ]

Dr. Alban - The Very Best Of 1990-1997 (1997) [FLAC|Lossless]<Eurodance>

 

Создавать темы 17-Дек-2014 11:56

-Dr. Alban - The Very Best Of 1990-1997 (1997)- Год: 1997
Жанр: Eurodance
Продолжительность: 01:11:38
Кодек: FLAC
Битрейт: Lossless
Тип рипа: image+.cue
Треклист:
1. Hello Afrika (Doctor Alban/Pop) (5:38)
2. Stop the Pollution (Album Version) (3:43)
3. U & Mi (Album Version) (3:47)
4. No Coke (Doctor Alban/Pop) (3:44)
5. One Love (Radio Version) (Doctor Alban/Pop) (4:14)
6. Sing Hallelujah (Doctor Alban/Pop) (4:02)
7. It's My Life (Doctor Alban/Pop) ( 4:02)
8. Look Who's Talking (Long) (5:23)
9. Let the Beat Go On (Short) (Lundin) (4:04)
10. Away from Home (Short) (3:19)
11. This Time I'm Free (Credibility Mix) (3:51)
12. Hallelujah Day (3:39)
13. Born in Africa (3:30)
14. It's My Life (3:50)
15. Sing Hallalujah! (4:09)
16. Hello Africa (6:39)
17. No Coke (3:55)

Отчёт ЕАС&#58;

Exact Audio Copy V0.99 prebeta 5 from 4. May 2009
Отчёт EAC об извлечении, выполненном 27. сентября 2010, 18:21
Dr. Alban / The Very Best Of 1990-1997
Дисковод: ASUS    DRW-2014S1T   Adapter: 2  ID: 0
Режим чтения                 : Достоверность
Использование точного потока : Да
Отключение кэша аудио        : Нет
Использование указателей C2  : Да
Коррекция смещения при чтении                     : 6
Способность читать области Lead-in и Lead-out     : Нет
Заполнение пропущенных сэмплов тишиной            : Да
Удаление блоков с тишиной в начале и конце        : Нет
При вычислениях CRC использовались нулевые сэмплы : Нет
Интерфейс                                         : Встроенный Win32-интерфейс для Win NT/2000
Выходной формат          : Пользовательский кодировщик
Выбранный битрейт        : 768 kBit/s
Качество                 : Высокий
Добавление ID3-тэга      : Нет
Утилита сжатия           : C:\Program Files\Exact Audio Copy\FLAC\FLAC.EXE
Дополнительные параметры : -8 -V -T "ARTIST=%a" -T "TITLE=%t" -T "ALBUM=%g" -T "DATE=%y" -T "TRACKNUMBER=%n" -T "GENRE=%m" -T "COMMENT=EAC FLAC -8" %s
TOC извлечённого CD
     Трек |   Старт  | Длительность | Начальный сектор | Конечный сектор
    ---------------------------------------------------------------------
       1  |  0:00.32 |    5:38.25   |          32      |      25406
       2  |  5:38.57 |    3:43.05   |       25407      |      42136
       3  |  9:21.62 |    3:47.50   |       42137      |      59211
       4  | 13:09.37 |    3:44.40   |       59212      |      76051
       5  | 16:54.02 |    4:14.48   |       76052      |      95149
       6  | 21:08.50 |    4:02.05   |       95150      |     113304
       7  | 25:10.55 |    4:02.00   |      113305      |     131454
       8  | 29:12.55 |    5:23.52   |      131455      |     155731
       9  | 34:36.32 |    4:04.70   |      155732      |     174101
      10  | 38:41.27 |    3:19.63   |      174102      |     189089
      11  | 42:01.15 |    3:51.27   |      189090      |     206441
      12  | 45:52.42 |    3:39.25   |      206442      |     222891
      13  | 49:31.67 |    3:30.60   |      222892      |     238701
      14  | 53:02.52 |    3:50.13   |      238702      |     255964
      15  | 56:52.65 |    4:09.50   |      255965      |     274689
      16  | 61:02.40 |    6:39.62   |      274690      |     304676
      17  | 67:42.27 |    3:55.55   |      304677      |     322356
Характеристики диапазона извлечения и сообщения об ошибках
Выбранный диапазон
     Имя файла D:\TORRENT\Reliz\Dr. Alban - The Very Best Of 1990-1997\Dr. Alban - The Very Best Of 1990-1997.wav
     Пиковый уровень 99.0 %
     Качество диапазона 99.9 %
     CRC теста CF59FCA2
     CRC копии CF59FCA2
     Копирование... OK
Ошибок не произошло
AccurateRip: сводка
Трек  1  точное извлечение (доверие 3)  [8EB78CA3]
Трек  2  точное извлечение (доверие 3)  [E1F31FDF]
Трек  3  точное извлечение (доверие 3)  [DB88903C]
Трек  4  точное извлечение (доверие 3)  [F9DB66F1]
Трек  5  точное извлечение (доверие 3)  [95F0E59A]
Трек  6  точное извлечение (доверие 3)  [137EE5BD]
Трек  7  точное извлечение (доверие 3)  [95F745BD]
Трек  8  точное извлечение (доверие 3)  [117ABB5C]
Трек  9  точное извлечение (доверие 3)  [098D2BE8]
Трек 10  точное извлечение (доверие 3)  [91BA0AA0]
Трек 11  точное извлечение (доверие 3)  [65AC49E9]
Трек 12  точное извлечение (доверие 3)  [5056E373]
Трек 13  точное извлечение (доверие 3)  [396FD4FC]
Трек 14  точное извлечение (доверие 3)  [19BB75C5]
Трек 15  точное извлечение (доверие 3)  [AF771F95]
Трек 16  точное извлечение (доверие 3)  [4AD90D84]
Трек 17  точное извлечение (доверие 3)  [2B5CFD7D]
Все треки извлечены точно
Конец отчёта

Отчёт Audiochecker&#58;

AUDIOCHECKER v2.0 beta (build 457) - by Dester - [url=mailto:[email protected]][email protected][/url]
~~~~~~~~~~~~~~~~~~~~~~~~~~~~~~~~~~
-=== DO NOT EDIT THIS FILE! ===-
Path: ...\Dr. Alban - The Very Best Of 1990-1997
1 -=- Dr. Alban - The Very Best Of 1990-1997.flac -=- CDDA (100%)
223477668
Время раздачи: С 19:00 до 24:00, и по возможности.
Яндекс.Метрика
Рейтинг@Mail.ru