[ Сегодня на трекере фрилич! Идет свободное скачивание без начисления Download ]

The Beloved - Sweet Harmony: The Very Best Of (2011) 2 CD [APE|Lossless]<Synthpop/House/New wave>

 

Создавать темы 17-Дек-2014 11:56

-The Beloved - Sweet Harmony: The Very Best Of (2011)- Страна: Великобритания
Год: 2011
Жанр: Synthpop/House/New wave
Издание: Rhino / MCDLX509
Треклист:
CD1
01. Sweet Harmony (5:02)
02. The Sun Rising (4:59)
03. Hello (4:19)
04. Your Love Takes Me Higher (3:33)
05. Time After Time (4:12)
06. It's Alright Now (5:31)
07. You've Got Me Thinking (3:54)
08. Outerspace Girl (4:49)
09. Don't You Worry (3:48)
10. I Love You More (3:55)
11. Wake Up Soon (4:58)
12. Spirit (4:39)
13. Lose Yourself In Me (4:23)
14. Rock To The Rhythm Of Love (4:35)
15. Dream On (6:22)
16. Deliver Me (3:55)
17. Up, Up And Away (6:52)
CD1
01. Loving Feeling (3:44)
02. Satellite (4:15)
03. Ease The Pressure (4:20)
04. Scarlet Beautiful (4:40)
05. Up, Up And Away (5:59)
06. Dream Within A Dream (7:38)
07. Pablo (4:57)
08. Paradise Found (7:17)
09. let The Music take You (5:00)
10. Crystal Wave (8:54)
11. For Your Love (4:15)
12. Spacemen (7:32)
13. Missing You (5:06)
14. Celebrate Your Love (5:35)
Продолжительность: CD1 - 01:19:46; CD2 - 01:19:13
Кодек: APE; Тип рипа: image + .cue
Коврики: front, back, inlay
Автор рипа: shar-pee
Время раздачи: 24x7 до первых пяти сидов.

CD1

Exact Audio Copy V1.0 beta 2 from 29. April 2011
Отчёт EAC об извлечении, выполненном 10. июня 2011, 18:19
The Beloved / Sweet Harmony: The Very best Of
Дисковод: TSSTcorpCDDVDW SH-S223C   Adapter: 1  ID: 0
Режим чтения                 : Достоверность
Использование точного потока : Да
Отключение кэша аудио        : Да
Использование указателей C2  : Нет
Коррекция смещения при чтении                     : 697
Способность читать области Lead-in и Lead-out     : Нет
Заполнение пропущенных сэмплов тишиной            : Да
Удаление блоков с тишиной в начале и конце        : Нет
При вычислениях CRC использовались нулевые сэмплы : Да
Интерфейс                                         : Встроенный Win32-интерфейс для Win NT/2000
Выходной формат : Внутренние WAV-операции
Формат сэмплов  : 44.100 Гц; 16 бит; стерео
TOC извлечённого CD
     Трек |   Старт  | Длительность | Начальный сектор | Конечный сектор
    ---------------------------------------------------------------------
       1  |  0:00.00 |    5:01.46   |           0      |      22620
       2  |  5:01.46 |    4:58.59   |       22621      |      45029
       3  | 10:00.30 |    4:18.72   |       45030      |      64451
       4  | 14:19.27 |    3:32.54   |       64452      |      80405
       5  | 17:52.06 |    4:11.71   |       80406      |      99301
       6  | 22:04.02 |    5:31.10   |       99302      |     124136
       7  | 27:35.12 |    3:53.69   |      124137      |     141680
       8  | 31:29.06 |    4:48.67   |      141681      |     163347
       9  | 36:17.73 |    3:47.72   |      163348      |     180444
      10  | 40:05.70 |    3:55.10   |      180445      |     198079
      11  | 44:01.05 |    4:58.12   |      198080      |     220441
      12  | 48:59.17 |    4:39.02   |      220442      |     241368
      13  | 53:38.19 |    4:23.13   |      241369      |     261106
      14  | 58:01.32 |    4:35.10   |      261107      |     281741
      15  | 62:36.42 |    6:22.10   |      281742      |     310401
      16  | 68:58.52 |    3:55.26   |      310402      |     328052
      17  | 72:54.03 |    6:52.05   |      328053      |     358957
Характеристики диапазона извлечения и сообщения об ошибках
Выбранный диапазон
     Имя файла C:\Users\Я\Desktop\The Beloved - Sweet Harmony- The Very best Of.wav
     Пиковый уровень 100.0 %
     Скорость извлечения 3.6 X
     Качество диапазона 99.9 %
     CRC теста 459A1FC0
     CRC копии 459A1FC0
     Копирование... OK
Ошибок не произошло
AccurateRip: сводка
Трек  1  : извлечено точно (доверие 1)  [9621CB89]  (AR v2)
Трек  2  : извлечено точно (доверие 1)  [DEF041BF]  (AR v2)
Трек  3  : извлечено точно (доверие 1)  [524D1EE8]  (AR v2)
Трек  4  : извлечено точно (доверие 1)  [7FB38B1E]  (AR v2)
Трек  5  : извлечено точно (доверие 1)  [7476FDFA]  (AR v2)
Трек  6  : извлечено точно (доверие 1)  [3A39928F]  (AR v2)
Трек  7  : извлечено точно (доверие 1)  [6FEA1DC5]  (AR v2)
Трек  8  : извлечено точно (доверие 1)  [6E2676B7]  (AR v2)
Трек  9  : извлечено точно (доверие 1)  [171747FB]  (AR v2)
Трек 10  : извлечено точно (доверие 1)  [A3286043]  (AR v2)
Трек 11  : извлечено точно (доверие 1)  [981B08D6]  (AR v2)
Трек 12  : извлечено точно (доверие 1)  [F11B0ABE]  (AR v2)
Трек 13  : извлечено точно (доверие 1)  [13150D42]  (AR v2)
Трек 14  : извлечено точно (доверие 1)  [0579998E]  (AR v2)
Трек 15  : извлечено точно (доверие 1)  [F75645C2]  (AR v2)
Трек 16  : извлечено точно (доверие 1)  [EB632F50]  (AR v2)
Трек 17  : извлечено точно (доверие 1)  [FF770052]  (AR v2)
Все треки извлечены точно
Конец отчёта

CD2

Exact Audio Copy V1.0 beta 2 from 29. April 2011
Отчёт EAC об извлечении, выполненном 10. июня 2011, 19:35
The Beloved / Sweet Harmony: The Very Bet Of CD2
Дисковод: TSSTcorpCDDVDW SH-S223C   Adapter: 1  ID: 0
Режим чтения                 : Достоверность
Использование точного потока : Да
Отключение кэша аудио        : Да
Использование указателей C2  : Нет
Коррекция смещения при чтении                     : 697
Способность читать области Lead-in и Lead-out     : Нет
Заполнение пропущенных сэмплов тишиной            : Да
Удаление блоков с тишиной в начале и конце        : Нет
При вычислениях CRC использовались нулевые сэмплы : Да
Интерфейс                                         : Встроенный Win32-интерфейс для Win NT/2000
Выходной формат : Внутренние WAV-операции
Формат сэмплов  : 44.100 Гц; 16 бит; стерео
TOC извлечённого CD
     Трек |   Старт  | Длительность | Начальный сектор | Конечный сектор
    ---------------------------------------------------------------------
       1  |  0:00.00 |    3:44.07   |           0      |      16806
       2  |  3:44.07 |    4:14.65   |       16807      |      35921
       3  |  7:58.72 |    4:19.54   |       35922      |      55400
       4  | 12:18.51 |    4:40.25   |       55401      |      76425
       5  | 16:59.01 |    5:59.14   |       76426      |     103364
       6  | 22:58.15 |    7:37.64   |      103365      |     137703
       7  | 30:36.04 |    4:57.29   |      137704      |     160007
       8  | 35:33.33 |    7:17.04   |      160008      |     192786
       9  | 42:50.37 |    5:00.00   |      192787      |     215286
      10  | 47:50.37 |    8:53.61   |      215287      |     255322
      11  | 56:44.23 |    4:15.16   |      255323      |     274463
      12  | 60:59.39 |    7:31.69   |      274464      |     308357
      13  | 68:31.33 |    5:06.09   |      308358      |     331316
      14  | 73:37.42 |    5:35.04   |      331317      |     356445
Характеристики диапазона извлечения и сообщения об ошибках
Выбранный диапазон
     Имя файла C:\Users\Я\Desktop\The Beloved - Sweet Harmony- The Very Bet Of CD2.wav
     Пиковый уровень 100.0 %
     Скорость извлечения 3.5 X
     Качество диапазона 99.9 %
     CRC теста 2FE3CFB8
     CRC копии 2FE3CFB8
     Копирование... OK
Ошибок не произошло
AccurateRip: сводка
Трек  1  : извлечено точно (доверие 1)  [FDE9ADF1]  (AR v2)
Трек  2  : извлечено точно (доверие 1)  [17586A30]  (AR v2)
Трек  3  : извлечено точно (доверие 1)  [35DA3634]  (AR v2)
Трек  4  : извлечено точно (доверие 1)  [629098BC]  (AR v2)
Трек  5  : извлечено точно (доверие 1)  [E9886938]  (AR v2)
Трек  6  : извлечено точно (доверие 1)  [642E7F76]  (AR v2)
Трек  7  : извлечено точно (доверие 1)  [5FB46600]  (AR v2)
Трек  8  : извлечено точно (доверие 1)  [046EFAE3]  (AR v2)
Трек  9  : извлечено точно (доверие 1)  [AD41EF21]  (AR v2)
Трек 10  : извлечено точно (доверие 1)  [3D8AD5A4]  (AR v2)
Трек 11  : извлечено точно (доверие 1)  [9BCE9524]  (AR v2)
Трек 12  : извлечено точно (доверие 1)  [9507C4EC]  (AR v2)
Трек 13  : извлечено точно (доверие 1)  [56232C5D]  (AR v2)
Трек 14  точность не определена (достоверность 1)  [2A1243FA], AccurateRip вернул [86C94185]  (AR v2)
13 трек(и) скопированы точно
1 трек(и) не удалось проверить на точность
Некоторые треки не прошли проверку на точность
Конец отчёта

CD1

-----------------------
DON'T MODIFY THIS FILE
-----------------------
PERFORMER: auCDtect Task Manager, ver. 1.5.1RC3 build 1.5.1.4
Copyright (c) 2008-2010 y-soft. All rights reserved
http://y-soft.org
ANALYZER: auCDtect: CD records authenticity detector, version 0.8.2
Copyright (c) 2004 Oleg Berngardt. All rights reserved.
Copyright (c) 2004 Alexander Djourik. All rights reserved.
FILE: The Beloved - Sweet Harmony- The Very best Of.ape
  Size: 536069604 Hash: 5F323AB2D572C0D60ED566D51CE21A3F Accuracy: -m0
  Conclusion: CDDA 100%
  Signature: DF54A8D271B06687382BF74749CF2C251B932183

CD2

-----------------------
DON'T MODIFY THIS FILE
-----------------------
PERFORMER: auCDtect Task Manager, ver. 1.5.1RC3 build 1.5.1.4
Copyright (c) 2008-2010 y-soft. All rights reserved
http://y-soft.org
ANALYZER: auCDtect: CD records authenticity detector, version 0.8.2
Copyright (c) 2004 Oleg Berngardt. All rights reserved.
Copyright (c) 2004 Alexander Djourik. All rights reserved.
FILE: The Beloved - Sweet Harmony- The Very Bet Of CD2.ape
  Size: 530158180 Hash: 672347C33EABC1512D5074A354F6D408 Accuracy: -m0
  Conclusion: CDDA 100%
  Signature: 16939BD1362EDDF6F463D722A254848F2880B2F3

CD1

REM GENRE Pop
REM DATE 2011
REM DISCID E912B211
REM COMMENT "ExactAudioCopy v1.0b2"
PERFORMER "The Beloved"
TITLE "Sweet Harmony: The Very best Of"
FILE "The Beloved - Sweet Harmony- The Very best Of.ape" WAVE
  TRACK 01 AUDIO
    TITLE "Sweet Harmony"
    PERFORMER "The Beloved"
    INDEX 01 00:00:00
  TRACK 02 AUDIO
    TITLE "The Sun Rising"
    PERFORMER "The Beloved"
    INDEX 00 05:01:28
    INDEX 01 05:01:46
  TRACK 03 AUDIO
    TITLE "Hello"
    PERFORMER "The Beloved"
    INDEX 01 10:00:30
  TRACK 04 AUDIO
    TITLE "Your Love Takes Me Higher"
    PERFORMER "The Beloved"
    INDEX 01 14:19:27
  TRACK 05 AUDIO
    TITLE "Time After Time"
    PERFORMER "The Beloved"
    INDEX 01 17:52:06
  TRACK 06 AUDIO
    TITLE "It's Alright Now"
    PERFORMER "The Beloved"
    INDEX 00 22:03:59
    INDEX 01 22:04:02
  TRACK 07 AUDIO
    TITLE "You've Got Me Thinking"
    PERFORMER "The Beloved"
    INDEX 01 27:35:12
  TRACK 08 AUDIO
    TITLE "Outerspace Girl"
    PERFORMER "The Beloved"
    INDEX 01 31:29:06
  TRACK 09 AUDIO
    TITLE "Don't You Worry"
    PERFORMER "The Beloved"
    INDEX 00 36:17:69
    INDEX 01 36:17:73
  TRACK 10 AUDIO
    TITLE "I Love You More"
    PERFORMER "The Beloved"
    INDEX 01 40:05:70
  TRACK 11 AUDIO
    TITLE "Wake Up Soon"
    PERFORMER "The Beloved"
    INDEX 01 44:01:05
  TRACK 12 AUDIO
    TITLE "Spirit"
    PERFORMER "The Beloved"
    INDEX 01 48:59:17
  TRACK 13 AUDIO
    TITLE "Lose Yourself In Me"
    PERFORMER "The Beloved"
    INDEX 01 53:38:19
  TRACK 14 AUDIO
    TITLE "Rock To The Rhythm Of Love"
    PERFORMER "The Beloved"
    INDEX 01 58:01:32
  TRACK 15 AUDIO
    TITLE "Dream On"
    PERFORMER "The Beloved"
    INDEX 01 62:36:42
  TRACK 16 AUDIO
    TITLE "Deliver Me"
    PERFORMER "The Beloved"
    INDEX 01 68:58:52
  TRACK 17 AUDIO
    TITLE "Up, Up And Away"
    PERFORMER "The Beloved"
    INDEX 00 72:53:12
    INDEX 01 72:54:03

CD2

REM GENRE Pop
REM DATE 2011
REM DISCID AD12900E
REM COMMENT "ExactAudioCopy v1.0b2"
PERFORMER "The Beloved"
TITLE "Sweet Harmony: The Very Bet Of CD2"
FILE "The Beloved - Sweet Harmony- The Very Bet Of CD2.ape" WAVE
  TRACK 01 AUDIO
    TITLE "Loving Feeling"
    PERFORMER "The Beloved"
    INDEX 01 00:00:00
  TRACK 02 AUDIO
    TITLE "Satellite"
    PERFORMER "The Beloved"
    INDEX 01 03:44:07
  TRACK 03 AUDIO
    TITLE "Ease The Pressure"
    PERFORMER "The Beloved"
    INDEX 00 07:58:71
    INDEX 01 07:58:72
  TRACK 04 AUDIO
    TITLE "Scarlet Beautiful"
    PERFORMER "The Beloved"
    INDEX 01 12:18:51
  TRACK 05 AUDIO
    TITLE "Up, Up And Away"
    PERFORMER "The Beloved"
    INDEX 01 16:59:01
  TRACK 06 AUDIO
    TITLE "Dream Within A Dream"
    PERFORMER "The Beloved"
    INDEX 01 22:58:15
  TRACK 07 AUDIO
    TITLE "Pablo"
    PERFORMER "The Beloved"
    INDEX 00 30:34:73
    INDEX 01 30:36:04
  TRACK 08 AUDIO
    TITLE "Paradise Found"
    PERFORMER "The Beloved"
    INDEX 00 35:33:07
    INDEX 01 35:33:33
  TRACK 09 AUDIO
    TITLE "let The Music take You"
    PERFORMER "The Beloved"
    INDEX 01 42:50:37
  TRACK 10 AUDIO
    TITLE "Crystal Wave"
    PERFORMER "The Beloved"
    INDEX 00 47:50:23
    INDEX 01 47:50:37
  TRACK 11 AUDIO
    TITLE "For Your Love"
    PERFORMER "The Beloved"
    INDEX 01 56:44:23
  TRACK 12 AUDIO
    TITLE "Spacemen"
    PERFORMER "The Beloved"
    INDEX 01 60:59:39
  TRACK 13 AUDIO
    TITLE "Missing You"
    PERFORMER "The Beloved"
    INDEX 01 68:31:33
  TRACK 14 AUDIO
    TITLE "Celebrate Your Love"
    PERFORMER "The Beloved"
    INDEX 00 73:36:67
    INDEX 01 73:37:42
Яндекс.Метрика
Рейтинг@Mail.ru