Fun Factory - All Their Best (1997) [APE|Lossless]<Eurodance>

 

Создавать темы 17-Дек-2014 11:56

-Fun Factory - All Their Best (1997)- Лейбл: Curb Records
Каталог: D2-77882
Год: 1997
Жанр: Eurodance
Продолжительность: 00:58:35
Кодек: APE
Битрейт: Lossless
Треклист:
01. Celebration (4:04)
02. Don't Go Away (3:28)
03. Do Wah Diddy Diddy (3:33)
04. I Wanna B With U (3:33)
05. I Love You (4:58)
06. Pain (4:51)
07. Close To You (4:36)
08. Oh Yeah Yeah (4:49)
09. Prove Your Love (4:25)
10. Love Of My Life (5:06)
11. Groove Me (3:59)
12. Take Your Chance (3:59)
13. Fun Factory's Theme (3:06)
14. We Are The World (4:09)

Дополнительная информация&#58;

Описание:
Fun Factory - Немецкий коллектив работающий в стиле евроденс с 1992-го года.
Группа существует и по сей день, но её состав полностью менялся уже три раза.
На альбоме "All Their Best" представлены композиции записаные в период расцвета евроденса с 1992-го по 1997-й годы первым и наиболее удачным составом: Toni Cottura (Smooth T), Rodney Hardison (Rod D.), Stephan Browarczyk (Steve), Balca "Balja" Tozun (Vocalist) и Marie-Anett Mey.
Спасибо aylaayla

Отчёт ЕАС&#58;

Exact Audio Copy V0.99 prebeta 4 from 23. January 2008
Отчёт EAC об извлечении, выполненном 7. октября 2009, 20:19
Fun Factory / All Their Best
Дисковод: TSSTcorpCDDVDW SH-S223F   Adapter: 1  ID: 1
Режим чтения                 : Достоверность
Использование точного потока : Да
Отключение кэша аудио        : Да
Использование указателей C2  : Нет
Коррекция смещения при чтении                     : 6
Способность читать области Lead-in и Lead-out     : Нет
Заполнение пропущенных сэмплов тишиной            : Да
Удаление блоков с тишиной в начале и конце        : Нет
При вычислениях CRC использовались нулевые сэмплы : Да
Интерфейс                                         : Установленный внешний ASPI-интерфейс
Выходной формат : Внутренние WAV-операции
Формат сэмплов  : 44.100 Гц; 16 бит; стерео
TOC извлечённого CD
     Трек |   Старт  | Длительность | Начальный сектор | Конечный сектор
    ---------------------------------------------------------------------
       1  |  0:00.32 |    4:03.50   |          32      |      18306
       2  |  4:04.07 |    3:28.08   |       18307      |      33914
       3  |  7:32.15 |    3:33.05   |       33915      |      49894
       4  | 11:05.20 |    3:33.25   |       49895      |      65894
       5  | 14:38.45 |    4:58.05   |       65895      |      88249
       6  | 19:36.50 |    4:51.12   |       88250      |     110086
       7  | 24:27.62 |    4:35.45   |      110087      |     130756
       8  | 29:03.32 |    4:49.13   |      130757      |     152444
       9  | 33:52.45 |    4:24.72   |      152445      |     172316
      10  | 38:17.42 |    5:05.70   |      172317      |     195261
      11  | 43:23.37 |    3:58.40   |      195262      |     213151
      12  | 47:22.02 |    3:58.55   |      213152      |     231056
      13  | 51:20.57 |    3:06.30   |      231057      |     245036
      14  | 54:27.12 |    4:08.48   |      245037      |     263684
Характеристики диапазона извлечения и сообщения об ошибках
Выбранный диапазон
     Имя файла J:\Temp\Upload-Torrents\Fun Factory\Fun Factory 1997 - All Their Best\Fun Factory - All Their Best.wav
     Пиковый уровень 99.9 %
     Качество диапазона 100.0 %
     CRC копии 9EA66EBD
     Копирование... OK
Ошибок не произошло
AccurateRip: сводка
Трек  1  точное извлечение (доверие 2)  [C3448F6E]
Трек  2  точное извлечение (доверие 2)  [CA3DE9D4]
Трек  3  точное извлечение (доверие 2)  [32D0F2BB]
Трек  4  точное извлечение (доверие 2)  [0036833C]
Трек  5  точное извлечение (доверие 2)  [40DE13B7]
Трек  6  точное извлечение (доверие 2)  [C885F5A0]
Трек  7  точное извлечение (доверие 2)  [16D0707A]
Трек  8  точное извлечение (доверие 2)  [34FC94CD]
Трек  9  точное извлечение (доверие 2)  [5B6A0519]
Трек 10  точное извлечение (доверие 2)  [E31C3914]
Трек 11  точное извлечение (доверие 2)  [6F37A239]
Трек 12  точное извлечение (доверие 2)  [8197080F]
Трек 13  точное извлечение (доверие 2)  [41D017DA]
Трек 14  точное извлечение (доверие 2)  [E3C1AAF9]
Все треки извлечены точно
Конец отчёта

Отчёт auCDtect Task manager&#58;

-----------------------
DON'T MODIFY THIS FILE
-----------------------
PERFORMER: auCDtect Task Manager, ver. 1.5.1RC4 build 1.5.1.5
Copyright (c) 2008-2010 y-soft. All rights reserved
http://y-soft.org
ANALYZER: auCDtect: CD records authenticity detector, version 0.8.2
Copyright (c) 2004 Oleg Berngardt. All rights reserved.
Copyright (c) 2004 Alexander Djourik. All rights reserved.
FILE: Fun Factory - All Their Best.ape
  Size: 445727228 Hash: 3540A89994E9852C9B315D939A56A9C9 Accuracy: -m0
  Conclusion: CDDA 100%
  Signature: BC09167AA7871A40EB0EF5482C0CDBCC4F5D650B
-
Яндекс.Метрика
Рейтинг@Mail.ru