Gazebo - 9 альбомов (1983-2008) [FLAC/APE+.cue|Lossless]<Eurodance, Pop>

 

Создавать темы 17-Дек-2014 11:56

-Gazebo - 9 Albums (1983-2008)- Год: 1983-2008
Жанр: Eurodance, Pop
Продолжительность: 08:29:56
Кодек: FLAC/APE
Битрейт: Lossless
Тип раздачи: image+.cue
Наличие сканов в содержимом раздачи: да-Поль Мацолини (Paul Mazzolini), знакомый своим слушателям под именем Gazebo, родился 18 февраля 1960 года в столице Ливана Бейруте.
Его детство прошло в путешествиях по всему миру вместе со своими родителями, что обусловило знакомство ребёнка с культурами многих стран. Отец Поля, Франческо, будучи итальянским дипломатом старой закваски, обучил сына пяти иностранным языкам из восьми, которые знал сам. От матери, Сони, которая была певицей, Поль унаследовал музыкальный талант. Согласно семейной легенде, он научился играть на гитаре в 10 лет для того, чтобы произвести впечатление на немецкую девочку, учившуюся с ним в одном классе.
В 1975 году Поль возвращается в Италию, где, спустя три года, заканчивает среднюю школу. После этого он уезжает в Лондон, где пробует свои силы в различных музыкальных группах, играющих панк, джаз и рок, после чего решает заняться музыкой профессионально. Вернувшись в 1981 году в Рим, он встречается с ди-джеем Паоло Мичиони, который решает выпустить песню, написанную Полем и их общим другом Пьерлуиджи Джомбини. Песня называлась «Masterpiece», и, после выпуска на виниле, она становится выдающимся хитом на европейском и азиатском рынках танцевальной музыки того времени.
В 1983 году Поль подписывает контракт с компанией Baby Records и выпускает свой первый альбом под названием «Gazebo», в который вошла навсегда ставшая мировым хитом песня «I Like Chopin». Песня заняла первые места в таких странах, как Германия, Франция, Италия, Швейцария, Австрия, Дания, Финляндия, Испания, Бельгия, Канада, Япония, Португалия, Гонконг, Корея, Сингапур, Турция, а также вошла в десятку лучших песен в других странах, включая США.
Песня не только попала на первые позиции национальных чартов, но и удерживалась там довольно длительный срок. Так, в Швейцарии в 1983 году «I Like Chopin» была на 1-м месте 18 недель. Одних только синглов «I Like Chopin» было продано более 10 миллионов.

Продолжение&#58;

Второй альбом Gazebo под названием «Telephone Mama» был выпущен в 1984 году и, несмотря на существенное отличие стиля песен от предыдущего альбома, также разошелся большим тиражом в большинстве стран, в которых продавался.
1985 год выдался нелегким для Поля — он уходит в армию. Это временное бездействие, а также нежелание зависеть от прихотей рынка, заставляет его пересмотреть взгляды на свою деятельность после возвращения из армии. Решив полностью посвятить себя любимому делу, Поль приобретает целый звукозаписывающий комплекс и основывает собственную компанию звукозаписи Lunatic S.r.l., после чего начинает заниматься работой над различными проектами, в том числе и продюсирование других исполнителей.
В 1986 году выходит «Univision», первый альбом, полностью принадлежащий лейблу Lunatic (в отличие от первых двух, права на которые принадлежали студии Baby Records).
Альбом 1988 года «Rainbow Tales», целиком записанный на аппаратуре собственной студии, стал первым шагом Поля в новом для него музыкальном направлении, попытке вернуться к своим музыкальным истокам, связанным с прогрессивной поп-музыкой семидесятых.
В 1989 году вышел альбом «Sweet Life», полностью самостоятельная работа Поля — здесь он был и автором, и композитором, и звукоинженером, и, само собой, продюсером. В состав альбома вошла песня Dolce Vita в особой аранжировке — одна из любимых песен Поля, написанная им в соавторстве для исполнителя Райана Париса и ставшей мировым хитом того времени.
1990 год стал годом рождения новой компании — Cresus Enterprises S.n.c., цель которой была составить единое целое с техническими возможностями студии Lunatic S.r.l. Призванием компании Cresus был дальнейший выпуск и распространение музыкального продукта в Италии.
В 1991 году Lunatic S.r.l. и Cresus, наконец, выпускают альбом «Scenes from the news broadcast» (официально последний полноценный альбом Gazebo перед долгим перерывом), который впервые выходит под маркой Lunatic Records и распространяется в Италии компанией BMG Ariola. Альбом получает положительные отзывы как на музыкальном рынке, так и среди критиков.
В том же году, Поль вместе со своим школьным другом Gustavo Romagna Manoja занимается созданием группы The Tycoons, результатом чего становится выпуск альбома «First», хотя и не входящий в официальную дискографию Gazebo, но очень важный для понимания этого периода его творчества.
Кроме этого, в 1991 и 1992 годах Поль занимается продюсированием диска «Summit» для Dino Kappa и «A Choir in Heaven» для Kammerton соответственно.
К периоду 1992-1993 года относится опыт первой совместной работы с известным албанским исполнителем Ardit Gjebrea, результат которой — песня «Jon» («Йон») занимает первое место на Тиранском песенном фестивале. Это было достаточно критическое время для Албании и песня стала своего рода гимном для страдающих беженцев, покидающих родную страну и пытающихся выжить на новом месте.
В 1994 году выходит альбом-компиляция «Portrait», хотя и содержащий песни с предыдущих шести альбомов, но весь материал, представленный в нем, был заново записан, обработан и сведён в студии Поля.
1996 год был отмечен продолжением сотрудничества с Ardit Gjebrea и The Tirana Polyphonic Group и, как результат, выпуском одного из наиболее любимых самим Полем альбома — «Projekt Jon» (читается как «Проект Йон»), где он выступил не только как продюсер, но и как сокомпозитор и бэк-вокалист в некоторых песнях.
В 1997 году Полем создается компания Softworks S.n.c., образованная за счет слияния Lunatic S.r.l и Cresus Enterprises S.n.c. Новая компания имеет большие планы, внушительную структуру, а уж энтузиазма им не занимать! Ведь впереди предстоит еще очень много работы…
В 1998 году компания Softworks выпускает альбом «Viewpoint», в который вошли как новые обработки уже хорошо известных песен, так и несколько замечательных, хотя и малоизвестных широкому кругу слушателей песен уже упомянавшейся группы The Tycoons. Также альбом содержит и несколько ранее не издававшихся песен Gazebo.
В 2000-м году был закончен проект «Portrait & Viewpoint», вышедший на двойном компакт-диске и содержащий все лучшее в творчестве Поля Мацолини.
2004 и 2005 годы — Поль готовится к выпуску совершенно нового альбома на основе материала, накопленного за время, прошедшее с момента выпуска «Scenes from the news broadcast».
Также он участвует в различных интересных параллельных проектах, выступая как продюсер, аранжировщик и автор песен, в феврале 2004 года выпустил «Jakujam» — новый альбом Ardit Gjebrea. Как обычно, Поль принимал самое активное участие в создании этого альбома.
В 2006 году Поль выпускает сингл «Tears For Galileo», предваряющий выход полноценного альбом с новым материалом, выступает вместе со своей новой группой как в Италии, так и во многих других странах.
В конце января 2008 года в рамках подготовки к выпуску нового альбома Gazebo выпускает сборник «Ladies! The Art Of Remixage», содержащий ремиксы «Ladies!».
25 сентября 2008 года выходит новый альбом Gazebo под названием «The Syndrone», посвящёный своей матери.
Поль часто выступает в различных городах и странах, несколько раз бывал он и в России, выступая в Москве и Петербурге как участник «Дискотеки 80-х» (2003 и 2008 гг.).
-

1983 - I Like Chopin

Трeклист:
01. Lunatic
02. Love in your eyes
03. London — Paris
04. Masterpiece
05. I Like Chopin
06. Wrap the Rock
07. Midnight Cocktail
08. Gimmick!
Прoдолжительность: 00:39:59
Кодек: FLAC

Отчёт ЕАС

Exact Audio Copy V0.99 prebeta 4 from 23. January 2008
Отчёт EAC об извлечении, выполненном 14. декабря 2008, 17:15
Gazebo / I Like Chopin
Дисковод: HL-DT-STDVD-RAM GSA-H55L   Adapter: 1  ID: 0
Режим чтения                 : Достоверность
Использование точного потока : Да
Отключение кэша аудио        : Да
Использование указателей C2  : Нет
Коррекция смещения при чтении                     : 102
Способность читать области Lead-in и Lead-out     : Нет
Заполнение пропущенных сэмплов тишиной            : Да
Удаление блоков с тишиной в начале и конце        : Нет
При вычислениях CRC использовались нулевые сэмплы : Да
Интерфейс                                         : Встроенный Win32-интерфейс для Win NT/2000
Выходной формат          : Пользовательский кодировщик
Выбранный битрейт        : 32 kBit/s
Качество                 : Высокий
Добавление ID3-тэга      : Да
Утилита сжатия           : C:\Program Files\Exact Audio Copy\Flac\flac.exe
Дополнительные параметры : -6 -V -T "ARTIST=%a" -T "TITLE=%t" -T "ALBUM=%g" -T "DATE=%y" -T "TRACKNUMBER=%n" -T "GENRE=%m" -T "COMMENT=EAC 0.9beta4 / FLAC 1.1.0 q6" %s
Смещение при сжатии      : 0
TOC извлечённого CD
     Трек |   Старт  | Длительность | Начальный сектор | Конечный сектор
    ---------------------------------------------------------------------
       1  |  0:00.00 |    4:03.12   |           0      |      18236
       2  |  4:03.12 |    7:53.18   |       18237      |      53729
       3  | 11:56.30 |    4:01.37   |       53730      |      71841
       4  | 15:57.67 |    4:15.28   |       71842      |      90994
       5  | 20:13.20 |    7:48.52   |       90995      |     126146
       6  | 28:01.72 |    3:15.00   |      126147      |     140771
       7  | 31:16.72 |    5:11.73   |      140772      |     164169
       8  | 36:28.70 |    3:30.69   |      164170      |     179988
Характеристики диапазона извлечения и сообщения об ошибках
Выбранный диапазон
     Имя файла G:\LOSSLESS\Gazebo\1983-I Like Chopin\Gazebo - I Like Chopin.wav
     Пиковый уровень 96.7 %
     Качество диапазона 100.0 %
     CRC копии 08F679CB
     Копирование... OK
Ошибок не произошло
Конец отчёта

Отчёт Audiochecker

Started at: среда, 22. 07. 2009. - 0:41.25
1 file found
1 -===- E:\Torrent\GAZEBO\1983-I Like Chopin\Gazebo - I Like Chopin.flac
  Extracted successfully
  Conclusion: this track is CDDA with probability 100%
  Tempfile successfully deleted.
Finished at: среда, 22. 07. 2009. - 0:50.52 (operation time: 0:09.26)

1984 - Telephone Mama

Трeклист:
01. Telephone Mama
02. First!
03. Snowhite Memories
04. Alphabet
05. For Anita
06. Solitaire
07. No Speed Control
08. Strategy
Прoдолжительность: 00:35:33
Кодек: FLAC

Отчёт ЕАС

Exact Audio Copy V0.99 prebeta 4 from 23. January 2008
Отчёт EAC об извлечении, выполненном 14. декабря 2008, 17:51
Gazebo / Telephone Mama
Дисковод: HL-DT-STDVD-RAM GSA-H55L   Adapter: 1  ID: 0
Режим чтения                 : Достоверность
Использование точного потока : Да
Отключение кэша аудио        : Да
Использование указателей C2  : Нет
Коррекция смещения при чтении                     : 102
Способность читать области Lead-in и Lead-out     : Нет
Заполнение пропущенных сэмплов тишиной            : Да
Удаление блоков с тишиной в начале и конце        : Нет
При вычислениях CRC использовались нулевые сэмплы : Да
Интерфейс                                         : Встроенный Win32-интерфейс для Win NT/2000
Выходной формат          : Пользовательский кодировщик
Выбранный битрейт        : 32 kBit/s
Качество                 : Высокий
Добавление ID3-тэга      : Да
Утилита сжатия           : C:\Program Files\Exact Audio Copy\Flac\flac.exe
Дополнительные параметры : -6 -V -T "ARTIST=%a" -T "TITLE=%t" -T "ALBUM=%g" -T "DATE=%y" -T "TRACKNUMBER=%n" -T "GENRE=%m" -T "COMMENT=EAC 0.9beta4 / FLAC 1.1.0 q6" %s
Смещение при сжатии      : 0
TOC извлечённого CD
     Трек |   Старт  | Длительность | Начальный сектор | Конечный сектор
    ---------------------------------------------------------------------
       1  |  0:00.00 |    5:43.15   |           0      |      25739
       2  |  5:43.15 |    3:34.24   |       25740      |      41813
       3  |  9:17.39 |    4:26.38   |       41814      |      61801
       4  | 13:44.02 |    4:20.72   |       61802      |      81373
       5  | 18:04.74 |    5:54.51   |       81374      |     107974
       6  | 23:59.50 |    4:32.66   |      107975      |     128440
       7  | 28:32.41 |    3:23.09   |      128441      |     143674
       8  | 31:55.50 |    3:37.50   |      143675      |     159999
Характеристики диапазона извлечения и сообщения об ошибках
Выбранный диапазон
     Имя файла G:\LOSSLESS\Gazebo\1984-Telephone Mama\Gazebo - Telephone Mama.wav
     Пиковый уровень 100.0 %
     Качество диапазона 100.0 %
     CRC копии E6BA2910
     Копирование... OK
Ошибок не произошло
Конец отчёта

Отчёт Audiochecker

Started at: среда, 22. 07. 2009. - 0:52.44
1 file found
1 -===- E:\Torrent\GAZEBO\1984-Telephone Mama\Gazebo - Telephone Mama.flac
  Extracted successfully
  Conclusion: this track is CDDA with probability 100%
  Tempfile successfully deleted.
Finished at: среда, 22. 07. 2009. - 1:00.12 (operation time: 0:07.28)

1986 - Univision

Трeклист:
01. Trotsky Burger
02. The Sun goes down on milky way
03. West Side Story
04. Orient Express
05. Home Sweet Home
06. Lotus Girl
07. Diamonds are Forever
08. Au Moulin Rouge
09. Pain
10. Santa Barbara Motel Impressions
Прoдолжительность: 00:28:06
Кодек: FLAC

Отчёт ЕАС

Exact Audio Copy V0.99 prebeta 4 from 23. January 2008
Отчёт EAC об извлечении, выполненном 14. декабря 2008, 18:53
Gazebo / Univision
Дисковод: HL-DT-STDVD-RAM GSA-H55L   Adapter: 1  ID: 0
Режим чтения                 : Достоверность
Использование точного потока : Да
Отключение кэша аудио        : Да
Использование указателей C2  : Нет
Коррекция смещения при чтении                     : 102
Способность читать области Lead-in и Lead-out     : Нет
Заполнение пропущенных сэмплов тишиной            : Да
Удаление блоков с тишиной в начале и конце        : Нет
При вычислениях CRC использовались нулевые сэмплы : Да
Интерфейс                                         : Встроенный Win32-интерфейс для Win NT/2000
Выходной формат          : Пользовательский кодировщик
Выбранный битрейт        : 32 kBit/s
Качество                 : Высокий
Добавление ID3-тэга      : Да
Утилита сжатия           : C:\Program Files\Exact Audio Copy\Flac\flac.exe
Дополнительные параметры : -6 -V -T "ARTIST=%a" -T "TITLE=%t" -T "ALBUM=%g" -T "DATE=%y" -T "TRACKNUMBER=%n" -T "GENRE=%m" -T "COMMENT=EAC 0.9beta4 / FLAC 1.1.0 q6" %s
Смещение при сжатии      : 0
TOC извлечённого CD
     Трек |   Старт  | Длительность | Начальный сектор | Конечный сектор
    ---------------------------------------------------------------------
       1  |  0:00.00 |    4:11.35   |           0      |      18859
       2  |  4:11.35 |    4:25.41   |       18860      |      38775
       3  |  8:37.01 |    3:54.15   |       38776      |      56340
       4  | 12:31.16 |    4:34.66   |       56341      |      76956
       5  | 17:06.07 |    1:51.58   |       76957      |      85339
       6  | 18:57.65 |    3:08.20   |       85340      |      99459
       7  | 22:06.10 |    5:09.32   |       99460      |     122666
       8  | 27:15.42 |    3:51.71   |      122667      |     140062
       9  | 31:07.38 |    5:02.49   |      140063      |     162761
      10  | 36:10.12 |    1:56.15   |      162762      |     171476
Характеристики диапазона извлечения и сообщения об ошибках
Выбранный диапазон
     Имя файла G:\LOSSLESS\Gazebo\1986-Univision\Gazebo - Univision.wav
     Пиковый уровень 100.0 %
     Качество диапазона 100.0 %
     CRC копии 16919AC8
     Копирование... OK
Ошибок не произошло
Конец отчёта

Отчёт Audiochecker

Started at: среда, 22. 07. 2009. - 1:03.16
7 files found
1 -===- E:\Torrent\GAZEBO\1986-Univision\Gazebo - Univision.flac
  Extracted successfully
  Conclusion: this track is CDDA with probability 100%
  Tempfile successfully deleted.

1988-The Rainbow Tales

Трeклист:
01. Ordinary Life
02. Coincidence
03. God Bless The Moonshade
04. Rain on Alexanderplatz
05. Blindfold
06. Alice in Wonderland
07. 1997
08. Alcoholiday
09. Got to Believe
10. Tycoon
Прoдолжительность: 00:44:14
Кодек: FLAC

Отчёт ЕАС

Exact Audio Copy V0.99 prebeta 4 from 23. January 2008
Отчёт EAC об извлечении, выполненном 14. декабря 2008, 18:26
Gazebo / The Rainbow Tales
Дисковод: HL-DT-STDVD-RAM GSA-H55L   Adapter: 1  ID: 0
Режим чтения                 : Достоверность
Использование точного потока : Да
Отключение кэша аудио        : Да
Использование указателей C2  : Нет
Коррекция смещения при чтении                     : 102
Способность читать области Lead-in и Lead-out     : Нет
Заполнение пропущенных сэмплов тишиной            : Да
Удаление блоков с тишиной в начале и конце        : Нет
При вычислениях CRC использовались нулевые сэмплы : Да
Интерфейс                                         : Встроенный Win32-интерфейс для Win NT/2000
Выходной формат          : Пользовательский кодировщик
Выбранный битрейт        : 32 kBit/s
Качество                 : Высокий
Добавление ID3-тэга      : Да
Утилита сжатия           : C:\Program Files\Exact Audio Copy\Flac\flac.exe
Дополнительные параметры : -6 -V -T "ARTIST=%a" -T "TITLE=%t" -T "ALBUM=%g" -T "DATE=%y" -T "TRACKNUMBER=%n" -T "GENRE=%m" -T "COMMENT=EAC 0.9beta4 / FLAC 1.1.0 q6" %s
Смещение при сжатии      : 0
TOC извлечённого CD
     Трек |   Старт  | Длительность | Начальный сектор | Конечный сектор
    ---------------------------------------------------------------------
       1  |  0:00.00 |    3:56.12   |           0      |      17711
       2  |  3:56.12 |    4:46.23   |       17712      |      39184
       3  |  8:42.35 |    4:36.35   |       39185      |      59919
       4  | 13:18.70 |    4:30.25   |       59920      |      80194
       5  | 17:49.20 |    3:47.35   |       80195      |      97254
       6  | 21:36.55 |    6:03.05   |       97255      |     124484
       7  | 27:39.60 |    3:29.25   |      124485      |     140184
       8  | 31:09.10 |    4:46.55   |      140185      |     161689
       9  | 35:55.65 |    4:02.20   |      161690      |     179859
      10  | 39:58.10 |    4:15.62   |      179860      |     199046
Характеристики диапазона извлечения и сообщения об ошибках
Выбранный диапазон
     Имя файла G:\LOSSLESS\Gazebo\1988-The Rainbow Tales (Sony)\Gazebo - The Rainbow Tales.wav
     Пиковый уровень 99.9 %
     Качество диапазона 100.0 %
     CRC копии 875DE963
     Копирование... OK
Ошибок не произошло
Конец отчёта

Отчёт Audiochecker

2 -===- E:\Torrent\GAZEBO\1988-The Rainbow Tales\Gazebo - The Rainbow Tales.flac
  Extracted successfully
  Conclusion: this track is CDDA with probability 90%
  Tempfile successfully deleted.

1989 - Sweet Life

Трeклист:
01. Buana! (No Safari)
02. Dolce Vita
03. Sandy
04. Waterland
05. Women Come Women Go
06. Shanghai Story
07. Face To Face
08. Madame Bovary
09. Gamila!
10. Wild Horses
Bonus tracks:
11. Love Is A Miracle
12. Wherever You Go
13. Dolce Vita (Remix 89)
14. Waterland (Long Version)
15. Masterpiece (Rare Remix)
16. Smile
17. The 14-th July (Robespieerre Version)
18. Versailles
Прoдолжительность: 01:19:04
Кодек: APE

Отчёт ЕАС

Exact Audio Copy V0.99 prebeta 4 from 23. January 2008
Отчёт EAC об извлечении, выполненном 8. апреля 2009, 19:39
Gazebo / Sweet Life
Дисковод: Optiarc DVD RW AD-7200S   Adapter: 1  ID: 1
Режим чтения                 : Достоверность
Использование точного потока : Да
Отключение кэша аудио        : Да
Использование указателей C2  : Нет
Коррекция смещения при чтении                     : 48
Способность читать области Lead-in и Lead-out     : Нет
Заполнение пропущенных сэмплов тишиной            : Да
Удаление блоков с тишиной в начале и конце        : Нет
При вычислениях CRC использовались нулевые сэмплы : Да
Интерфейс                                         : Встроенный Win32-интерфейс для Win NT/2000
Выходной формат : Monkey's Audio Lossless Encoder v3.99 DLL
Формат сэмплов  : Fast Lossless Compression
TOC извлечённого CD
     Трек |   Старт  | Длительность | Начальный сектор | Конечный сектор
    ---------------------------------------------------------------------
       1  |  0:00.00 |    4:25.03   |           0      |      19877
       2  |  4:25.03 |    4:32.23   |       19878      |      40300
       3  |  8:57.26 |    3:40.03   |       40301      |      56803
       4  | 12:37.29 |    4:30.70   |       56804      |      77123
       5  | 17:08.24 |    2:10.54   |       77124      |      86927
       6  | 19:19.03 |    4:08.07   |       86928      |     105534
       7  | 23:27.10 |    5:20.11   |      105535      |     129545
       8  | 28:47.21 |    4:08.31   |      129546      |     148176
       9  | 32:55.52 |    4:28.62   |      148177      |     168338
      10  | 37:24.39 |    3:42.24   |      168339      |     185012
      11  | 41:06.63 |    4:02.07   |      185013      |     203169
      12  | 45:08.70 |    4:11.46   |      203170      |     222040
      13  | 49:20.41 |    4:17.39   |      222041      |     241354
      14  | 53:38.05 |    5:06.03   |      241355      |     264307
      15  | 58:44.08 |    5:31.03   |      264308      |     289135
      16  | 64:15.11 |    3:27.65   |      289136      |     304725
      17  | 67:43.01 |    8:30.20   |      304726      |     342995
      18  | 76:13.21 |    2:51.00   |      342996      |     355820
Характеристики диапазона извлечения и сообщения об ошибках
Выбранный диапазон
     Имя файла F:\Музыка\торренты\Gazebo_коллекция\1989\Gazebo - Sweet Life.ape
     Пиковый уровень 98.8 %
     Качество диапазона 100.0 %
     CRC теста A22202F1
     CRC копии A22202F1
     Копирование... OK
Ошибок не произошло

Отчёт Audiochecker

3 -===- E:\Torrent\GAZEBO\1989- Sweet Life\Gazebo - Sweet Life.ape
  Extracted successfully
  Conclusion: this track is CDDA with probability 100%
  Tempfile successfully deleted.

1992 - Scenes From The News Broadcast

Трeклист:
01. Fire
02. The Fourteenth of July
03. Victims in Paradise
04. Sniffahh
05. Let it fly Away
06. Anyhow
07. I Like Chopin (Remix)
08. No No No
09. Waves
10. Blood Link
11. I Like Chopin (Inst.)
12. 66 ...
13. West Side Story
14. Diamonds Are Forever
15. Pain
Прoдолжительность: 01:10:00
Кодек: APE

Отчёт ЕАС

Exact Audio Copy V0.99 prebeta 4 from 23. January 2008
Отчёт EAC об извлечении, выполненном 8. октября 2008, 15:40
Gazebo / Scenes From The News Broadcast
Дисковод: Optiarc DVD RW AD-7170S   Adapter: 2  ID: 0
Режим чтения                 : Достоверность
Использование точного потока : Да
Отключение кэша аудио        : Да
Использование указателей C2  : Нет
Коррекция смещения при чтении                     : 48
Способность читать области Lead-in и Lead-out     : Нет
Заполнение пропущенных сэмплов тишиной            : Да
Удаление блоков с тишиной в начале и конце        : Нет
При вычислениях CRC использовались нулевые сэмплы : Да
Интерфейс                                         : Установленный внешний ASPI-интерфейс
Выходной формат : Monkey's Audio Lossless Encoder v3.99 DLL
Формат сэмплов  : High Lossless Compression
TOC извлечённого CD
     Трек |   Старт  | Длительность | Начальный сектор | Конечный сектор
    ---------------------------------------------------------------------
       1  |  0:00.00 |    4:19.33   |           0      |      19457
       2  |  4:19.33 |    4:42.05   |       19458      |      40612
       3  |  9:01.38 |    4:44.72   |       40613      |      61984
       4  | 13:46.35 |    4:08.40   |       61985      |      80624
       5  | 17:55.00 |    4:08.33   |       80625      |      99257
       6  | 22:03.33 |    4:05.52   |       99258      |     117684
       7  | 26:09.10 |    9:00.05   |      117685      |     158189
       8  | 35:09.15 |    4:42.55   |      158190      |     179394
       9  | 39:51.70 |    4:43.23   |      179395      |     200642
      10  | 44:35.18 |    3:35.57   |      200643      |     216824
      11  | 48:11.00 |    3:48.48   |      216825      |     233972
      12  | 51:59.48 |    4:30.45   |      233973      |     254267
      13  | 56:30.18 |    3:59.15   |      254268      |     272207
      14  | 60:29.33 |    5:13.35   |      272208      |     295717
      15  | 65:42.68 |    5:04.32   |      295718      |     318549
Характеристики диапазона извлечения и сообщения об ошибках
Выбранный диапазон
     Имя файла C:\Documents and Settings\Администратор\Рабочий стол\Gazebo - Scenes From The News Broadcast\Gazebo - Scenes From The News Broadcast.ape
     Пиковый уровень 100.0 %
     Качество диапазона 99.9 %
     CRC теста 425402A7
     CRC копии 425402A7
     Копирование... OK
Ошибок не произошло
AccurateRip: сводка
Трек  1  нет в базе данных
Трек  2  нет в базе данных
Трек  3  нет в базе данных
Трек  4  нет в базе данных
Трек  5  нет в базе данных
Трек  6  нет в базе данных
Трек  7  нет в базе данных
Трек  8  нет в базе данных
Трек  9  нет в базе данных
Трек 10  нет в базе данных
Трек 11  нет в базе данных
Трек 12  нет в базе данных
Трек 13  нет в базе данных
Трек 14  нет в базе данных
Трек 15  нет в базе данных
Ни одного трека нет в базе AccurateRip
Конец отчёта

Отчёт Audiochecker

4 -===- E:\Torrent\GAZEBO\1991-Scenes From The News Broadcast\Gazebo - Scenes From The News Broadcast.ape
  Extracted successfully
  Conclusion: this track is CDDA with probability 100%
  Tempfile successfully deleted.

1994 - Portrait

Трeклист:
01. Lunatic
02. Victims in Paradise
03. God Bless the Moonshade
04. Masterpiece
05. The Fourteenth of July
06. Sun goes down on Milky Way
07. Dancing with the moonlite Knight
08. I Like Chopin
09. Telephone Mama
10. Trotsky Burger
11. Dolce Vita
12. Waterland
13. Women Come Women Go
14. Tycoon
15. Masterpiece (12" Remix)
16. Dolce Vita (12" Remix)
Прoдолжительность: 01:13:00
Кодек: FLAC

Отчёт ЕАС

Exact Audio Copy V0.99 prebeta 4 from 23. January 2008
Отчёт EAC об извлечении, выполненном 14. декабря 2008, 16:22
Gazebo / Portrait
Дисковод: HL-DT-STDVD-RAM GSA-H55L   Adapter: 1  ID: 0
Режим чтения                 : Достоверность
Использование точного потока : Да
Отключение кэша аудио        : Да
Использование указателей C2  : Нет
Коррекция смещения при чтении                     : 102
Способность читать области Lead-in и Lead-out     : Нет
Заполнение пропущенных сэмплов тишиной            : Да
Удаление блоков с тишиной в начале и конце        : Нет
При вычислениях CRC использовались нулевые сэмплы : Да
Интерфейс                                         : Встроенный Win32-интерфейс для Win NT/2000
Выходной формат          : Пользовательский кодировщик
Выбранный битрейт        : 32 kBit/s
Качество                 : Высокий
Добавление ID3-тэга      : Да
Утилита сжатия           : C:\Program Files\Exact Audio Copy\Flac\flac.exe
Дополнительные параметры : -6 -V -T "ARTIST=%a" -T "TITLE=%t" -T "ALBUM=%g" -T "DATE=%y" -T "TRACKNUMBER=%n" -T "GENRE=%m" -T "COMMENT=EAC 0.9beta4 / FLAC 1.1.0 q6" %s
Смещение при сжатии      : 0
TOC извлечённого CD
     Трек |   Старт  | Длительность | Начальный сектор | Конечный сектор
    ---------------------------------------------------------------------
       1  |  0:00.00 |    4:35.25   |           0      |      20649
       2  |  4:35.25 |    5:07.60   |       20650      |      43734
       3  |  9:43.10 |    4:39.15   |       43735      |      64674
       4  | 14:22.25 |    5:16.57   |       64675      |      88431
       5  | 19:39.07 |    5:00.10   |       88432      |     110941
       6  | 24:39.17 |    4:09.53   |      110942      |     129669
       7  | 28:48.70 |    1:49.35   |      129670      |     137879
       8  | 30:38.30 |    4:52.52   |      137880      |     159831
       9  | 35:31.07 |    5:43.68   |      159832      |     185624
      10  | 41:15.00 |    3:54.55   |      185625      |     203229
      11  | 45:09.55 |    4:17.52   |      203230      |     222556
      12  | 49:27.32 |    5:02.73   |      222557      |     245279
      13  | 54:30.30 |    2:12.07   |      245280      |     255186
      14  | 56:42.37 |    4:57.00   |      255187      |     277461
      15  | 61:39.37 |    5:31.38   |      277462      |     302324
      16  | 67:11.00 |    6:42.00   |      302325      |     332474
Характеристики диапазона извлечения и сообщения об ошибках
Выбранный диапазон
     Имя файла G:\LOSSLESS\Gazebo\1995-Portrait\Gazebo - Portrait.wav
     Пиковый уровень 100.0 %
     Качество диапазона 99.9 %
     CRC копии 86205A09
     Копирование... OK
Ошибок не произошло
Конец отчёта

Отчёт Audiochecker

5 -===- E:\Torrent\GAZEBO\1995-Portrait\Gazebo - Portrait.flac
  Extracted successfully
  Conclusion: this track is CDDA with probability 100%
  Tempfile successfully deleted.

1998 - Viewpoint

Трeклист:
01. I Like Chopin 98' (Radio Edit)
02. The Seasons
03. Alice in Wonderland
04. Love in your Eyes
05. Anyhow
06. Orient Express
07. Open Door
08. Love is a Miracle
09. To Carol
10. Mr. Chopin and Mme Sand
11. 1997
12. Fire
13. Bloodlink
14. Ordinary Life
15. Why
16. Masterpiece 98' (Master Rap Cut)
Прoдолжительность: 01:16:00
Кодек: FLAC

Отчёт ЕАС

Exact Audio Copy V0.99 prebeta 4 from 23. January 2008
Отчёт EAC об извлечении, выполненном 22. декабря 2008, 16:06
Gazebo / Viewpoint
Дисковод: HL-DT-STDVD-RAM GSA-H55L   Adapter: 1  ID: 0
Режим чтения                 : Достоверность
Использование точного потока : Да
Отключение кэша аудио        : Да
Использование указателей C2  : Нет
Коррекция смещения при чтении                     : 102
Способность читать области Lead-in и Lead-out     : Нет
Заполнение пропущенных сэмплов тишиной            : Да
Удаление блоков с тишиной в начале и конце        : Нет
При вычислениях CRC использовались нулевые сэмплы : Да
Интерфейс                                         : Встроенный Win32-интерфейс для Win NT/2000
Выходной формат          : Пользовательский кодировщик
Выбранный битрейт        : 32 kBit/s
Качество                 : Высокий
Добавление ID3-тэга      : Да
Утилита сжатия           : C:\Program Files\Exact Audio Copy\Flac\flac.exe
Дополнительные параметры : -6 -V -T "ARTIST=%a" -T "TITLE=%t" -T "ALBUM=%g" -T "DATE=%y" -T "TRACKNUMBER=%n" -T "GENRE=%m" -T "COMMENT=EAC 0.9beta4 / FLAC 1.1.0 q6" %s
Смещение при сжатии      : 0
TOC извлечённого CD
     Трек |   Старт  | Длительность | Начальный сектор | Конечный сектор
    ---------------------------------------------------------------------
       1  |  0:00.00 |    3:45.52   |           0      |      16926
       2  |  3:45.52 |    5:14.08   |       16927      |      40484
       3  |  8:59.60 |    5:11.40   |       40485      |      63849
       4  | 14:11.25 |    6:02.30   |       63850      |      91029
       5  | 20:13.55 |    4:21.60   |       91030      |     110664
       6  | 24:35.40 |    4:14.65   |      110665      |     129779
       7  | 28:50.30 |    4:01.20   |      129780      |     147874
       8  | 32:51.50 |    4:04.22   |      147875      |     166196
       9  | 36:55.72 |    6:00.30   |      166197      |     193226
      10  | 42:56.27 |    9:56.58   |      193227      |     237984
      11  | 52:53.10 |    3:28.62   |      237985      |     253646
      12  | 56:21.72 |    4:49.38   |      253647      |     275359
      13  | 61:11.35 |    3:36.52   |      275360      |     291611
      14  | 64:48.12 |    4:11.58   |      291612      |     310494
      15  | 68:59.70 |    4:22.10   |      310495      |     330154
      16  | 73:22.05 |    3:33.60   |      330155      |     346189
Характеристики диапазона извлечения и сообщения об ошибках
Выбранный диапазон
     Имя файла G:\1998-Viewpoint\Gazebo - Viewpoint.wav
     Пиковый уровень 100.0 %
     Качество диапазона 100.0 %
     CRC копии CD887E87
     Копирование... OK
Ошибок не произошло
Конец отчёта

Отчёт Audiochecker

6 -===- E:\Torrent\GAZEBO\1998-Viewpoint\Gazebo - Viewpoint.flac
  Extracted successfully
  Conclusion: this track is CDDA with probability 99%
  Tempfile successfully deleted.

2008 - ... The Syndrone

Трeклист:
01. Tears for Galileo
02. Ladies!
03. Free (If Only)
04. Erosion
05. The Man At The Window
06. Strike & Awe
07. Apply
08. Flashlights
09. Virtual Love
10. Parfum Exotique
11. 25 Years
12. Crystal
13. To Float Or To Know
14. Sleepers
15. My World
16. Tears For Galileo (Reprise)
Прoдолжительность: 01:04:00
Кодек: APE

Отчёт ЕАС

Exact Audio Copy V0.99 prebeta 4 from 23. January 2008
Отчёт EAC об извлечении, выполненном 27. ноября 2008, 23:47
Gazebo / ...the syndrone
Дисковод: Optiarc DVD RW AD-7170S   Adapter: 2  ID: 0
Режим чтения                 : Достоверность
Использование точного потока : Да
Отключение кэша аудио        : Да
Использование указателей C2  : Нет
Коррекция смещения при чтении                     : 48
Способность читать области Lead-in и Lead-out     : Нет
Заполнение пропущенных сэмплов тишиной            : Да
Удаление блоков с тишиной в начале и конце        : Нет
При вычислениях CRC использовались нулевые сэмплы : Да
Интерфейс                                         : Установленный внешний ASPI-интерфейс
Выходной формат : Monkey's Audio Lossless Encoder v3.99 DLL
Формат сэмплов  : High Lossless Compression
TOC извлечённого CD
     Трек |   Старт  | Длительность | Начальный сектор | Конечный сектор
    ---------------------------------------------------------------------
       1  |  0:00.00 |    4:21.60   |           0      |      19634
       2  |  4:21.60 |    5:26.33   |       19635      |      44117
       3  |  9:48.18 |    4:30.39   |       44118      |      64406
       4  | 14:18.57 |    4:18.34   |       64407      |      83790
       5  | 18:37.16 |    3:33.27   |       83791      |      99792
       6  | 22:10.43 |    3:40.08   |       99793      |     116300
       7  | 25:50.51 |    3:55.12   |      116301      |     133937
       8  | 29:45.63 |    3:51.19   |      133938      |     151281
       9  | 33:37.07 |    3:42.10   |      151282      |     167941
      10  | 37:19.17 |    5:16.22   |      167942      |     191663
      11  | 42:35.39 |    4:30.39   |      191664      |     211952
      12  | 47:06.03 |    3:53.34   |      211953      |     229461
      13  | 50:59.37 |    4:02.64   |      229462      |     247675
      14  | 55:02.26 |    4:06.72   |      247676      |     266197
      15  | 59:09.23 |    4:48.11   |      266198      |     287808
      16  | 63:57.34 |    0:56.47   |      287809      |     292055
Характеристики диапазона извлечения и сообщения об ошибках
Выбранный диапазон
     Имя файла C:\Documents and Settings\Администратор\Рабочий стол\Gazebo - ...the syndrone\Gazebo - ...the syndrone.ape
     Пиковый уровень 99.9 %
     Качество диапазона 100.0 %
     CRC теста A5F2B89B
     CRC копии A5F2B89B
     Копирование... OK
Ошибок не произошло
AccurateRip: сводка
Трек  1  нет в базе данных
Трек  2  нет в базе данных
Трек  3  нет в базе данных
Трек  4  нет в базе данных
Трек  5  нет в базе данных
Трек  6  нет в базе данных
Трек  7  нет в базе данных
Трек  8  нет в базе данных
Трек  9  нет в базе данных
Трек 10  нет в базе данных
Трек 11  нет в базе данных
Трек 12  нет в базе данных
Трек 13  нет в базе данных
Трек 14  нет в базе данных
Трек 15  нет в базе данных
Трек 16  нет в базе данных
Ни одного трека нет в базе AccurateRip
Конец отчёта

Отчет Audiochecker

7 -===- E:\Torrent\GAZEBO\2008-...the syndrone\Gazebo - ...the syndrone.ape
  Extracted successfully
  Conclusion: this track is CDDA with probability 100%
  Tempfile successfully deleted.
Finished at: среда, 22. 07. 2009. - 2:43.06 (operation time: 1:39.50)
-
Яндекс.Метрика
Рейтинг@Mail.ru