Aqua - Megalomania (2011) [FLAC|Lossless]<Pop, Eurodance>

 

Создавать темы 17-Дек-2014 11:56

-Aqua - Megalomania (2011)-
Год: 2011
Издание: Universal Music / P&C
Catalog Nr: 276 776 7
Жанр: Pop / Eurodance
Продолжительность: 00:39:29
Источник: Интернет
Кодек: FLAC
Тип рипа: Image+.cue
Битрейт: Lossless
Трек лист:
01. Playmate To Jesus (4:49)
02. Dirty Little Pop Song (3:51)
03. Kill Myself (3:32)
04. Like A Robot (3:39)
05. Viva Las Vegas (3:25)
06. No Party Patrol (3:22)
07. Come n' Get It (3:27)
08. Sucker For A Superstar (3:21)
09. Be My Saviour Tonight (3:18)
10. How R U Doin (3:23)
11. If The World Didn't Suck (3:22)

Содержание индексной карты&#58;

REM GENRE Eurodance
REM DATE 2011
REM DISCID A209400B
REM COMMENT "ExactAudioCopy v0.99pb5"
PERFORMER "Aqua"
TITLE "Megalomania"
FILE "Aqua - Megalomania.flac" WAVE
  TRACK 01 AUDIO
    TITLE "Playmate To Jesus"
    PERFORMER "Aqua"
    INDEX 01 00:00:00
  TRACK 02 AUDIO
    TITLE "Dirty Little Pop Song"
    PERFORMER "Aqua"
    INDEX 01 04:48:70
  TRACK 03 AUDIO
    TITLE "Kill Myself"
    PERFORMER "Aqua"
    INDEX 01 08:40:09
  TRACK 04 AUDIO
    TITLE "Like A Robot"
    PERFORMER "Aqua"
    INDEX 01 12:11:54
  TRACK 05 AUDIO
    TITLE "Viva Las Vegas"
    PERFORMER "Aqua"
    INDEX 01 15:50:65
  TRACK 06 AUDIO
    TITLE "No Party Patrol"
    PERFORMER "Aqua"
    INDEX 01 19:15:50
  TRACK 07 AUDIO
    TITLE "Come n' Get It"
    PERFORMER "Aqua"
    INDEX 01 22:37:74
  TRACK 08 AUDIO
    TITLE "Sucker For A Superstar"
    PERFORMER "Aqua"
    INDEX 01 26:05:09
  TRACK 09 AUDIO
    TITLE "Be My Saviour Tonight"
    PERFORMER "Aqua"
    INDEX 01 29:25:61
  TRACK 10 AUDIO
    TITLE "How R U Doin"
    PERFORMER "Aqua"
    INDEX 01 32:43:60
  TRACK 11 AUDIO
    TITLE "If The World Didn't Suck"
    PERFORMER "Aqua"
    INDEX 01 36:07:00

Отчёт EAC&#58;

Exact Audio Copy V0.99 prebeta 5 from 4. May 2009
EAC extraction logfile from 14. October 2011, 15:56
Aqua / Megalomania
Used drive  : HL-DT-STDVDRAM GSA-T50N   Adapter: 1  ID: 0
Read mode               : Secure
Utilize accurate stream : Yes
Defeat audio cache      : Yes
Make use of C2 pointers : No
Read offset correction                      : 667
Overread into Lead-In and Lead-Out          : No
Fill up missing offset samples with silence : Yes
Delete leading and trailing silent blocks   : No
Null samples used in CRC calculations       : Yes
Used interface                              : Native Win32 interface for Win NT & 2000
Used output format : Internal WAV Routines
Sample format      : 44.100 Hz; 16 Bit; Stereo
TOC of the extracted CD
     Track |   Start  |  Length  | Start sector | End sector
    ---------------------------------------------------------
        1  |  0:00.00 |  4:48.70 |         0    |    21669
        2  |  4:48.70 |  3:51.14 |     21670    |    39008
        3  |  8:40.09 |  3:31.45 |     39009    |    54878
        4  | 12:11.54 |  3:39.11 |     54879    |    71314
        5  | 15:50.65 |  3:24.60 |     71315    |    86674
        6  | 19:15.50 |  3:22.24 |     86675    |   101848
        7  | 22:37.74 |  3:27.10 |    101849    |   117383
        8  | 26:05.09 |  3:20.52 |    117384    |   132435
        9  | 29:25.61 |  3:17.74 |    132436    |   147284
       10  | 32:43.60 |  3:23.15 |    147285    |   162524
       11  | 36:07.00 |  3:21.66 |    162525    |   177665
Range status and errors
Selected range
     Filename C:\Users\Fancy\Desktop\Aqua - Megalomania.wav
     Peak level 100.0 %
     Range quality 100.0 %
     Test CRC E2D64698
     Copy CRC E2D64698
     Copy OK
No errors occurred
AccurateRip summary
Track  1  not present in database
Track  2  not present in database
Track  3  not present in database
Track  4  not present in database
Track  5  not present in database
Track  6  not present in database
Track  7  not present in database
Track  8  not present in database
Track  9  not present in database
Track 10  not present in database
Track 11  not present in database
None of the tracks are present in the AccurateRip database
End of status report

Отчёт auCDtect Task Manager&#58;

-----------------------
DON'T MODIFY THIS FILE
-----------------------
PERFORMER: auCDtect Task Manager, ver. 1.5.1RC4 build 1.5.1.5
Copyright (c) 2008-2010 y-soft. All rights reserved
http://y-soft.org
ANALYZER: auCDtect: CD records authenticity detector, version 0.8.2
Copyright (c) 2004 Oleg Berngardt. All rights reserved.
Copyright (c) 2004 Alexander Djourik. All rights reserved.
FILE: Aqua - Megalomania.flac
  Size: 322511888 Hash: 043692C0D8CAAF3CBBAAEA357B736169 Accuracy: -m0
  Conclusion: CDDA 100%
  Signature: 098213D569DA7CB3FC8A3EFDE2C58141EC75B543
Спасибо perikof
Время раздачи: с 01:00 до 19:00 МСК
Яндекс.Метрика
Рейтинг@Mail.ru