Radiorama - The Best Of (1989) [FLAC|Lossless]<Eurodance, Technopop, Disco>

 

Создавать темы 17-Дек-2014 11:56

-Radiorama - The Best Of (1989)- Жанр: Eurodance, Technopop, Disco
Страна-производитель диска: Germany
Год издания диска: 1989
Издатель (лейбл): HANSA
Номер по каталогу: 258688-323
Страна: Italy
Аудиокодек: FLAC (*.flac)lossless
Тип рипа: image+.cue
Продолжительность: 01:18:56
Трек лист:
01. Desire (5:08)
02. Yeti (6:03)
03. Aliens (5:51)
04. Chance To Desire (7:01)
05. Vampires (6:05)
06. Hey Hey (Remix 89) (5:10)
07. Aliens (Remix 89) (6:15)
08. Fire (5:49)
09. Heartbreaker (6:14)
10. Yeti (Remix 89) (7:48)11. Manitu (3:48)
12. Love Of My Life (4:44)
13. So I Know (4:45)
14. Warrior (4:15)

Отчёт ЕАС&#58;

Exact Audio Copy V1.0 beta 2 from 29. April 2011
Отчёт EAC об извлечении, выполненном 22. августа 2011, 18:30
Radiorama / The Best Of
Дисковод: TSSTcorpCDDVDW SH-S222A   Adapter: 0  ID: 0
Режим чтения                 : Достоверность
Использование точного потока : Да
Отключение кэша аудио        : Да
Использование указателей C2  : Нет
Коррекция смещения при чтении                     : 6
Способность читать области Lead-in и Lead-out     : Нет
Заполнение пропущенных сэмплов тишиной            : Да
Удаление блоков с тишиной в начале и конце        : Нет
При вычислениях CRC использовались нулевые сэмплы : Нет
Интерфейс                                         : Встроенный Win32-интерфейс для Win NT/2000
Выходной формат          : Пользовательский кодировщик
Выбранный битрейт        : 768 kBit/s
Качество                 : Высокий
Добавление ID3-тега      : Нет
Утилита сжатия           : C:\Program Files\Exact Audio Copy\FLAC\FLAC.EXE
Дополнительные параметры : -8 -V -T "ARTIST=%artist%" -T "TITLE=%title%" -T "ALBUM=%albumtitle%" -T "DATE=%year%" -T "TRACKNUMBER=%tracknr%" -T "GENRE=%genre%" -T "COMMENT=%comment%" -T "BAND=%albuminterpret%" -T "COMPOSER=%composer%" %haslyrics%--tag-from-
TOC извлечённого CD
     Трек |   Старт  | Длительность | Начальный сектор | Конечный сектор
    ---------------------------------------------------------------------
       1  |  0:00.00 |    5:08.55   |           0      |      23154
       2  |  5:08.55 |    6:03.27   |       23155      |      50406
       3  | 11:12.07 |    5:51.26   |       50407      |      76757
       4  | 17:03.33 |    7:01.41   |       76758      |     108373
       5  | 24:04.74 |    6:05.65   |      108374      |     135813
       6  | 30:10.64 |    5:09.74   |      135814      |     159062
       7  | 35:20.63 |    6:15.18   |      159063      |     187205
       8  | 41:36.06 |    5:48.71   |      187206      |     213376
       9  | 47:25.02 |    6:14.66   |      213377      |     241492
      10  | 53:39.68 |    7:48.53   |      241493      |     276645
      11  | 61:28.46 |    3:47.73   |      276646      |     293743
      12  | 65:16.44 |    4:44.12   |      293744      |     315055
      13  | 70:00.56 |    4:45.13   |      315056      |     336443
      14  | 74:45.69 |    4:15.25   |      336444      |     355593
Характеристики диапазона извлечения и сообщения об ошибках
Выбранный диапазон
     Имя файла D:\Downloads\Для раздач\1989-Radiorama-The Best Of\Radiorama - The Best Of.wav
     Пиковый уровень 100.0 %
     Скорость извлечения 8.6 X
     Качество диапазона 100.0 %
     CRC копии 208A0250
     Копирование... OK
Ошибок не произошло
AccurateRip: сводка
Трек  1  отсутствует в базе данных
Трек  2  отсутствует в базе данных
Трек  3  отсутствует в базе данных
Трек  4  отсутствует в базе данных
Трек  5  отсутствует в базе данных
Трек  6  отсутствует в базе данных
Трек  7  отсутствует в базе данных
Трек  8  отсутствует в базе данных
Трек  9  отсутствует в базе данных
Трек 10  отсутствует в базе данных
Трек 11  отсутствует в базе данных
Трек 12  отсутствует в базе данных
Трек 13  отсутствует в базе данных
Трек 14  отсутствует в базе данных
Ни одного трека нет в базе AccurateRip
Конец отчёта
==== Контрольная сумма отчёта B62AC3CCE33FB272722B6423452FEBE7E6463A2C4AC817AEF591716A6ED45299 ====

Отчёт auCDtect Task manager&#58;

-----------------------
DON'T MODIFY THIS FILE
-----------------------
PERFORMER: auCDtect Task Manager, ver. 1.5.1RC4 build 1.5.1.5
Copyright (c) 2008-2010 y-soft. All rights reserved
http://y-soft.org
ANALYZER: auCDtect: CD records authenticity detector, version 0.8.2
Copyright (c) 2004 Oleg Berngardt. All rights reserved.
Copyright (c) 2004 Alexander Djourik. All rights reserved.
FILE: Radiorama - The Best Of.flac
  Size: 606933598 Hash: F67A6D58D9C1DC82665636CBDBA93286 Accuracy: -m0
  Conclusion: CDDA 100%
  Signature: 45A13477E7FA715A5379BD43709A9818CD3939F3
-
Яндекс.Метрика
Рейтинг@Mail.ru