[ Сегодня на трекере фрилич! Идет свободное скачивание без начисления Download ]

Freddie Mercury - Living On My Own (CDM) (1993) [FLAC|Lossless]<Eurodance, Synth-pop>

 

Создавать темы 17-Дек-2014 11:56

-Freddie Mercury - Living On My Own (CDM) (1993)- Год: 1993
Жанр: Eurodance, Synth-pop
Продолжительность: 00:17:04
Кодек: FLAC
Битрейт: Lossless
Трек лист:
1. Living On My Own (Radio Mix)
2. Living On My Own (Extended Mix)
3. Living On My Own (Club Mix)
4. Living On My Own (Album Mix)

Отчёт ЕАС&#58;

Exact Audio Copy V0.99 prebeta 5 from 4. May 2009
EAC extraction logfile from 18. April 2010, 22:26
Freddie Mercury / Living On My Own
Used drive  : ATAPI   iHAS124   A   Adapter: 5  ID: 0
Read mode               : Secure
Utilize accurate stream : Yes
Defeat audio cache      : Yes
Make use of C2 pointers : No
Read offset correction                      : 6
Overread into Lead-In and Lead-Out          : No
Fill up missing offset samples with silence : Yes
Delete leading and trailing silent blocks   : No
Null samples used in CRC calculations       : Yes
Used interface                              : Native Win32 interface for Win NT & 2000
Used output format : Internal WAV Routines
Sample format      : 44.100 Hz; 16 Bit; Stereo
TOC of the extracted CD
     Track |   Start  |  Length  | Start sector | End sector
    ---------------------------------------------------------
        1  |  0:00.33 |  3:40.60 |        33    |    16592
        2  |  3:41.18 |  5:17.15 |     16593    |    40382
        3  |  8:58.33 |  4:27.70 |     40383    |    60477
        4  | 13:26.28 |  3:38.07 |     60478    |    76834
Range status and errors
Selected range
     Filename F:\Freddie Mercury - Living On My Own (1993) (CD, Maxi-Single) 7243 8 80767 2 2\Freddie Mercury - Living On My Own.wav
     Peak level 100.0 %
     Range quality 100.0 %
     Test CRC E3E1E557
     Copy CRC E3E1E557
     Copy OK
No errors occurred
End of status report

Отчёт auCDtect Task manager&#58;

-----------------------
DON'T MODIFY THIS FILE
-----------------------
PERFORMER: auCDtect Task Manager, ver. 1.5.1RC4 build 1.5.1.5
Copyright (c) 2008-2010 y-soft. All rights reserved
http://y-soft.org
ANALYZER: auCDtect: CD records authenticity detector, version 0.8.2
Copyright (c) 2004 Oleg Berngardt. All rights reserved.
Copyright (c) 2004 Alexander Djourik. All rights reserved.
FILE: Freddie Mercury - Living On My Own.flac
  Size: 118352601 Hash: 8CB7D65FD9DEC96F37071FEA7B821D5B Accuracy: -m0
  Conclusion: CDDA 100%
  Signature: 38AF075CE61473193FF7D122D0E76C2D48F87D7D
Время раздачи: с 21:00 до 0:00
Яндекс.Метрика
Рейтинг@Mail.ru