Captain Jack - The Mission (1996) [FLAC|Lossless]<Eurodance>

 

Создавать темы 17-Дек-2014 11:56

-Captain Jack - The Mission (1996)- Год: 1996
Жанр: Eurodance
Продолжительность: 01:08:18
Кодек: FLAC
Битрейт: Lossless
Трек лист:
01. The Mission (Intro)
02. Sir Yes Sir (Pt-Mix)
03. Captain Jack (Short Mix)
04. Soldier Soldier (Short Summer Mix)
05. Little Boy (Boy Oh Boy Mix)
06. Drill Instructor (Short Mix)
07. Take On Me (Longplay)
08. Captain's Dream (Instrumental Mix)
09. Jack In Da House (Jack Da House Mix)
10. Back Home (Captain's Return)
11. She's A Lady (Sing Nanana Mix)
12. Captain Jack Remix (Housy Grooves From U.K. Mix)
13. Drill Instructor Remix (All 4 One Mix)
14. Jack In Da House (Old School Mix)
15. The Final Countdown (Uuh Baby Mix)

Отчёт ЕАС&#58;

Exact Audio Copy V0.99 prebeta 5 from 4. May 2009
EAC extraction logfile from 12. December 2009, 17:32
Captain Jack / The Mission
Used drive : _NEC DVD_RW ND-4571A Adapter: 0 ID: 2
Read mode : Secure
Utilize accurate stream : Yes
Defeat audio cache : Yes
Make use of C2 pointers : No
Read offset correction : 48
Overread into Lead-In and Lead-Out : No
Fill up missing offset samples with silence : Yes
Delete leading and trailing silent blocks : No
Null samples used in CRC calculations : Yes
Used interface : Native Win32 interface for Win NT & 2000
Used output format : User Defined Encoder
Selected bitrate : 768 kBit/s
Quality : High
Add ID3 tag : No
Command line compressor : C:\Program Files\Exact Audio Copy\FLAC\FLAC.EXE
Additional command line options : -6 -V -T "ARTIST=%a" -T "TITLE=%t" -T "ALBUM=%g" -T "DATE=%y" -T "TRACKNUMBER=%n" -T "GENRE=%m" -T "COMMENT=%e" %s -o %d
TOC of the extracted CD
Track | Start | Length | Start sector | End sector
---------------------------------------------------------
1 | 0:00.00 | 1:06.67 | 0 | 5016
2 | 1:06.67 | 4:09.18 | 5017 | 23709
3 | 5:16.10 | 4:08.40 | 23710 | 42349
4 | 9:24.50 | 3:35.27 | 42350 | 58501
5 | 13:00.02 | 3:46.15 | 58502 | 75466
6 | 16:46.17 | 4:14.35 | 75467 | 94551
7 | 21:00.52 | 5:30.28 | 94552 | 119329
8 | 26:31.05 | 4:04.20 | 119330 | 137649
9 | 30:35.25 | 4:12.07 | 137650 | 156556
10 | 34:47.32 | 5:14.73 | 156557 | 180179
11 | 40:02.30 | 3:27.30 | 180180 | 195734
12 | 43:29.60 | 6:44.57 | 195735 | 226091
13 | 50:14.42 | 6:13.43 | 226092 | 254109
14 | 56:28.10 | 6:13.20 | 254110 | 282104
15 | 62:41.30 | 5:36.22 | 282105 | 307326
Range status and errors
Selected range
Filename M:\Свои\Captain Jack - 1996 - The Mission (Japanese Release).wav
Peak level 98.8 %
Range quality 99.9 %
Test CRC 2EBFD209
Copy CRC 2EBFD209
Copy OK
No errors occurred
AccurateRip summary
Track 1 not present in database
Track 2 not present in database
Track 3 not present in database
Track 4 not present in database
Track 5 not present in database
Track 6 not present in database
Track 7 not present in database
Track 8 not present in database
Track 9 not present in database
Track 10 not present in database
Track 11 not present in database
Track 12 not present in database
Track 13 not present in database
Track 14 not present in database
Track 15 not present in database
None of the tracks are present in the AccurateRip database
End of status report

Отчёт auCDtect Task manager&#58;

-----------------------
DON'T MODIFY THIS FILE
-----------------------
PERFORMER: auCDtect Task Manager, ver. 1.5.1RC4 build 1.5.1.5
Copyright (c) 2008-2010 y-soft. All rights reserved
http://y-soft.org
ANALYZER: auCDtect: CD records authenticity detector, version 0.8.2
Copyright (c) 2004 Oleg Berngardt. All rights reserved.
Copyright (c) 2004 Alexander Djourik. All rights reserved.
FILE: Captain Jack - 1996 - The Mission (Japanese Release).flac
  Size: 515590351 Hash: EACFD5093B45E43F1ACED661573E08AA Accuracy: -m0
  Conclusion: CDDA 99%
  Signature: 2206FAD4C3CD9FDB6100FD9CC09E01140E2145DD
Время раздачи: С 21:00 до 0:00
Яндекс.Метрика
Рейтинг@Mail.ru