[ Сегодня на трекере фрилич! Идет свободное скачивание без начисления Download ]

Yaki-Da - 6 альбомов (1994-2000) [APE/FLAC|Lossless]<Disco, Pop, Eurodance>

 

Создавать темы 17-Дек-2014 11:56

-Yaki-Da - 2 Albums + 4 Singles & EPs (1994-2000)- Год: 1994-2000
Жанр: Disco, Pop, Eurodance
Продолжительность: 02:35:43
Аудиокодек: APE/FLAC
Битрейт: Lossless
Тип раздачи: image/tracks+.cue
Наличие сканов в содержимом раздачи: да-Yaki-Da — шведская группа, тесно связанная с проектом "Ace of Base". Состав: Линда Шенберг и Мэри Кнутсен-Грин. Их самым популярным хитом являлась песня "I Saw You Dancing".
Группа образовалась в 1994 году в Швеции (город Гётеборг). Ее название происходит от одноимённого ночного клуба в Гётеборге. Сначала владельцы клуба ничего не имели против этого музыкального коллектива, но позже передумали. Так, название «Yaki-Da» могло быть использованно при выступлении группы только в Швеции, а за её пределами, она стала называться "Y-D". Их первый альбом, содержащий песни "Show me love" и "I saw you dancing", стал очень популярным не толко в Европе, но и в Южной Корее, где разошёлся тиражом в 400 тысяч копий.
Весной 1997 года Линда и Мэри приступили к работе над новым альбомом с расчётом на неменьший успех, чем у предыдущего. Но Джонас Бергрен (автор песен группы) был очень успешен с проектом "Ace of Base" и у него просто не хватало времени для написания и издания второго альбома для “Yaki-Da”. Мэри и Линда выпустили свой второй студийный альбом в 1999 году, получивший название "A small step for love" ("Маленький шаг за любовью"). Как и его предшественник, альбом получил большое признание в Южной Корее. К сожалению, в Европе альбом так и не был издан.
-

Albums&#58;

1994 - Pride Продолжительность&#58; 00&#58;45&#58;43 APE

Трeклист:
01. Just a Dream (03:20)
02. I Saw You Dancing (03:50)
03. Pride of Africa (03:37)
04. Show Me Love (03:29)
05. Teaser on the Catwalk (03:37)
06. Another Better World (03:46)
07. Mejor Manana (03:26)
08. Deep in the Jungle (04:13)
09. Now I Want Love (04:05)
10. Pride of Africa (Remix) (04:36)
11. Show Me Love (Acoustic Version) (03:26)
12. Rescue Me Tonight (04:13)

Отчет EAC

Отчёт EAC об извлечении, выполненном 2. июня 2007, 0:00 для диска:
Yaki-Da / Pride
Дисковод: HL-DT-STDVDRAM GSA-4163B   Adapter: 3  ID: 0
Режим чтения: Достоверный (C2: нет, Точный поток: да, Отключение кэша: да)
Коррекция смещения при чтении: 667
Способность читать области Lead-in и Lead-out : Нет
Выходной формат: D:\Program Files\Exact Audio Copy\Codecs\mac401b2.exe   (Monkey's Audio (без потерь))
                     Fast Lossless Compression
                     Дополнительные параметры: %d -t "Artist=%a" -t "Title=%t" -t "Album=%g" -t "Year=%y" -t "Track=%n" -t "Genre=%m" -t "Comment=EAC Mac4.01b2  -c2000" D:\Program Files\Exact Audio Copy\Codecs\mac401b2.exe %s %d -c2000
Другие параметры:
    Заполнение пропущенных сэмплов тишиной : Да
    Удаление блоков с тишиной в начале и конце : Нет
    Встроенный Win32-интерфейс для Win NT/2000 SAV
Характеристики диапазона извлечения и сообщения об ошибках
Выбранный диапазон
     Имя файла G:\Yaki-Da - Pride.wav
     Пиковый уровень 98.5 %
     Качество диапазона 100.0 %
     CRC 4155347E
     Копирование... OK
Ошибок не произошло
Конец отчёта

Содержание индексной карты (.CUE&#41;

REM GENRE Pop
REM DATE 1994
REM DISCID 900AB60C
REM COMMENT ExactAudioCopy v0.95b4
PERFORMER "Yaki-Da"
TITLE "Pride"
REM REPLAYGAIN_ALBUM_GAIN -4.40 dB
REM REPLAYGAIN_ALBUM_PEAK 0.975311
FILE "Yaki-Da - Pride.ape" WAVE
  TRACK 01 AUDIO
    TITLE "Just a Dream"
    REM REPLAYGAIN_TRACK_GAIN -6.79 dB
    REM REPLAYGAIN_TRACK_PEAK 0.975311
    INDEX 01 00:00:00
  TRACK 02 AUDIO
    TITLE "I Saw You Dancing"
    REM REPLAYGAIN_TRACK_GAIN -4.26 dB
    REM REPLAYGAIN_TRACK_PEAK 0.951233
    INDEX 01 03:20:55
  TRACK 03 AUDIO
    TITLE "Pride of Africa"
    REM REPLAYGAIN_TRACK_GAIN -5.00 dB
    REM REPLAYGAIN_TRACK_PEAK 0.951233
    INDEX 01 07:10:60
  TRACK 04 AUDIO
    TITLE "Show Me Love"
    REM REPLAYGAIN_TRACK_GAIN -3.08 dB
    REM REPLAYGAIN_TRACK_PEAK 0.951080
    INDEX 01 10:48:15
  TRACK 05 AUDIO
    TITLE "Teaser on the Catwalk"
    REM REPLAYGAIN_TRACK_GAIN -4.81 dB
    REM REPLAYGAIN_TRACK_PEAK 0.951233
    INDEX 01 14:17:40
  TRACK 06 AUDIO
    TITLE "Another Better World"
    REM REPLAYGAIN_TRACK_GAIN -4.84 dB
    REM REPLAYGAIN_TRACK_PEAK 0.951233
    INDEX 01 17:55:05
  TRACK 07 AUDIO
    TITLE "Mejor Manana"
    REM REPLAYGAIN_TRACK_GAIN -4.82 dB
    REM REPLAYGAIN_TRACK_PEAK 0.951233
    INDEX 01 21:41:55
  TRACK 08 AUDIO
    TITLE "Deep in the Jungle"
    REM REPLAYGAIN_TRACK_GAIN -3.21 dB
    REM REPLAYGAIN_TRACK_PEAK 0.951233
    INDEX 01 25:07:55
  TRACK 09 AUDIO
    TITLE "Now I Want Love"
    REM REPLAYGAIN_TRACK_GAIN -3.58 dB
    REM REPLAYGAIN_TRACK_PEAK 0.951233
    INDEX 01 29:21:00
  TRACK 10 AUDIO
    TITLE "Pride of Africa (Remix)"
    REM REPLAYGAIN_TRACK_GAIN -4.93 dB
    REM REPLAYGAIN_TRACK_PEAK 0.951233
    INDEX 01 33:26:05
  TRACK 11 AUDIO
    TITLE "Show Me Love (Acoustic Version)"
    REM REPLAYGAIN_TRACK_GAIN -3.10 dB
    REM REPLAYGAIN_TRACK_PEAK 0.951233
    INDEX 01 38:02:55
  TRACK 12 AUDIO
    TITLE "Rescue Me Tonight"
    REM REPLAYGAIN_TRACK_GAIN -2.15 dB
    REM REPLAYGAIN_TRACK_PEAK 0.897797
    INDEX 01 41:29:35

Отчет auCDtect Task manager

-----------------------
DON'T MODIFY THIS FILE
-----------------------
PERFORMER: auCDtect Task Manager, ver. 1.5.1RC6 build 1.5.1.7
Copyright (c) 2008-2010 y-soft. All rights reserved
http://y-soft.org
ANALYZER: auCDtect: CD records authenticity detector, version 0.8.2
Copyright (c) 2004 Oleg Berngardt. All rights reserved.
Copyright (c) 2004 Alexander Djourik. All rights reserved.
FILE: Yaki-Da - Pride.ape
  Size: 295450508 Hash: 1B9CDF634AB9E367C7FED88286488672 Accuracy: -m0
  Conclusion: CDDA 100%
  Signature: B99712DC4E6FFA612E49A7500E5C6F7F575CEAB6

1998 - A Small Step For Love Продолжительность&#58; 00&#58;37&#58;48 APE (image+.cue&#41;

Трeклист:
01. If Only the World (03:13)
02. Dreamin' (04:14)
03. I Believe (03:21)
04. A Small Step for Love (04:45)
05. Whatever It Takes (03:18)
06. Show You Love (03:15)
07. Let Me (03:40)
08. Careful (03:33)
09. If I Where You (04:44)
10. It's Not Over (03:41)

Отчет EAC

Exact Audio Copy V0.99 prebeta 4 from 23. January 2008
EAC extraction logfile from 24. February 2008, 12:40
Y-D / A Small Step For Love
Used drive  : PLEXTOR CD-ROM PX-40TS   Adapter: 2  ID: 3
Read mode               : Secure
Utilize accurate stream : Yes
Defeat audio cache      : Yes
Make use of C2 pointers : No
Read offset correction                      : 676
Overread into Lead-In and Lead-Out          : No
Fill up missing offset samples with silence : Yes
Delete leading and trailing silent blocks   : No
Null samples used in CRC calculations       : Yes
Used interface                              : Installed external ASPI interface SAV
Used output format : Internal WAV Routines
Sample format      : 44.100 Hz; 16 Bit; Stereo
TOC of the extracted CD
     Track |   Start  |  Length  | Start sector | End sector
    ---------------------------------------------------------
        1  |  0:00.00 |  3:13.42 |         0    |    14516
        2  |  3:13.42 |  4:14.53 |     14517    |    33619
        3  |  7:28.20 |  3:21.05 |     33620    |    48699
        4  | 10:49.25 |  4:45.15 |     48700    |    70089
        5  | 15:34.40 |  3:18.45 |     70090    |    84984
        6  | 18:53.10 |  3:15.72 |     84985    |    99681
        7  | 22:09.07 |  3:40.35 |     99682    |   116216
        8  | 25:49.42 |  3:33.25 |    116217    |   132216
        9  | 29:22.67 |  4:44.60 |    132217    |   153576
       10  | 34:07.52 |  3:41.68 |    153577    |   170219
       11  | 40:21.45 | 18:52.36 |    181620    |   266555
Range status and errors
Selected range
     Filename M:\Music\Y-D - A Small Step For Love\Y-D - A Small Step For Love.wav
     Peak level 99.9 %
     Range quality 100.0 %
     Copy CRC 955AE879
     Copy OK
No errors occurred
AccurateRip summary
Track  1  not present in database
Track  2  not present in database
Track  3  not present in database
Track  4  not present in database
Track  5  not present in database
Track  6  not present in database
Track  7  not present in database
Track  8  not present in database
Track  9  not present in database
Track 10  not present in database
None of the tracks are present in the AccurateRip database
End of status report

Содержание индексной карты (.CUE&#41;

REM GENRE Pop
REM DATE 2000
REM DISCID 820DE20B
REM COMMENT ExactAudioCopy v0.99pb4
PERFORMER "Yaki-Da"
TITLE "A Small Step for Love"
REM REPLAYGAIN_ALBUM_GAIN -8.33 dB
REM REPLAYGAIN_ALBUM_PEAK 0.999878
FILE "Yaki-Da - A Small Step for Love.ape" WAVE
  TRACK 01 AUDIO
    TITLE "If Only the World"
    REM REPLAYGAIN_TRACK_GAIN -9.29 dB
    REM REPLAYGAIN_TRACK_PEAK 0.998962
    INDEX 01 00:00:00
  TRACK 02 AUDIO
    TITLE "Dreamin'"
    REM REPLAYGAIN_TRACK_GAIN -9.14 dB
    REM REPLAYGAIN_TRACK_PEAK 0.999084
    INDEX 01 03:13:42
  TRACK 03 AUDIO
    TITLE "I Believe"
    REM REPLAYGAIN_TRACK_GAIN -8.48 dB
    REM REPLAYGAIN_TRACK_PEAK 0.999878
    INDEX 01 07:28:20
  TRACK 04 AUDIO
    TITLE "A Small Step for Love"
    REM REPLAYGAIN_TRACK_GAIN -6.20 dB
    REM REPLAYGAIN_TRACK_PEAK 0.999146
    INDEX 00 10:48:22
    INDEX 01 10:49:25
  TRACK 05 AUDIO
    TITLE "Whatever It Takes"
    REM REPLAYGAIN_TRACK_GAIN -7.96 dB
    REM REPLAYGAIN_TRACK_PEAK 0.999084
    INDEX 00 15:33:32
    INDEX 01 15:34:40
  TRACK 06 AUDIO
    TITLE "Show You Love"
    REM REPLAYGAIN_TRACK_GAIN -8.11 dB
    REM REPLAYGAIN_TRACK_PEAK 0.999146
    INDEX 01 18:53:10
  TRACK 07 AUDIO
    TITLE "Let Me"
    REM REPLAYGAIN_TRACK_GAIN -7.15 dB
    REM REPLAYGAIN_TRACK_PEAK 0.999146
    INDEX 01 22:09:07
  TRACK 08 AUDIO
    TITLE "Careful"
    REM REPLAYGAIN_TRACK_GAIN -10.65 dB
    REM REPLAYGAIN_TRACK_PEAK 0.999146
    INDEX 01 25:49:42
  TRACK 09 AUDIO
    TITLE "If I Where You"
    REM REPLAYGAIN_TRACK_GAIN -7.42 dB
    REM REPLAYGAIN_TRACK_PEAK 0.999146
    INDEX 01 29:22:67
  TRACK 10 AUDIO
    TITLE "It's Not Over"
    REM REPLAYGAIN_TRACK_GAIN -7.59 dB
    REM REPLAYGAIN_TRACK_PEAK 0.999146
    INDEX 01 34:07:52

Отчет auCDtect Task manager

-----------------------
DON'T MODIFY THIS FILE
-----------------------
PERFORMER: auCDtect Task Manager, ver. 1.5.1RC6 build 1.5.1.7
Copyright (c) 2008-2010 y-soft. All rights reserved
http://y-soft.org
ANALYZER: auCDtect: CD records authenticity detector, version 0.8.2
Copyright (c) 2004 Oleg Berngardt. All rights reserved.
Copyright (c) 2004 Alexander Djourik. All rights reserved.
FILE: Yaki-Da - A Small Step for Love.ape
  Size: 276020288 Hash: 40B7B9062AE809CD3350519F5D037862 Accuracy: -m0
  Conclusion: CDDA 100%
  Signature: 8BB1784394993D0443288B0EA0A13C80E4CC69FB

Singles &amp; EPs&#58;

1994 - I Saw You Dancing Продолжительность&#58; 00&#58;22&#58;10 FLAC (image+.cue&#41;

Трeклист:
01. I Saw You Dancing (Radio) (03:52)
02. I Saw You Dancing (Extended) (04:46)
03. I Saw You Dancing (East Mix) (04:02)
04. I Saw You Dancing (Tribal Radiocut) (04:42)
05. I Saw You Dancing (House Radiocut) (05:08)

Содержание индексной карты (.CUE&#41;

REM GENRE Pop
REM DATE 1994
REM DISCID 2C054805
REM COMMENT ExactAudioCopy v1.0b1
PERFORMER "Yaki-Da"
TITLE "I Saw You Dancing"
REM REPLAYGAIN_ALBUM_GAIN -4.90 dB
REM REPLAYGAIN_ALBUM_PEAK 1.000000
FILE "Yaki-Da - I Saw You Dancing.flac" WAVE
  TRACK 01 AUDIO
    TITLE "I Saw You Dancing (Radio)"
    PERFORMER "Yaki-Da"
    REM REPLAYGAIN_TRACK_GAIN -3.92 dB
    REM REPLAYGAIN_TRACK_PEAK 0.891907
    INDEX 01 00:00:00
  TRACK 02 AUDIO
    TITLE "I Saw You Dancing (Extended)"
    PERFORMER "Yaki-Da"
    REM REPLAYGAIN_TRACK_GAIN -2.32 dB
    REM REPLAYGAIN_TRACK_PEAK 0.891235
    INDEX 00 03:50:37
    INDEX 01 03:52:37
  TRACK 03 AUDIO
    TITLE "I Saw You Dancing (East Mix)"
    PERFORMER "Yaki-Da"
    REM REPLAYGAIN_TRACK_GAIN -5.95 dB
    REM REPLAYGAIN_TRACK_PEAK 1.000000
    INDEX 00 08:36:74
    INDEX 01 08:38:74
  TRACK 04 AUDIO
    TITLE "I Saw You Dancing (Tribal Radiocut)"
    PERFORMER "Yaki-Da"
    REM REPLAYGAIN_TRACK_GAIN -5.78 dB
    REM REPLAYGAIN_TRACK_PEAK 0.978271
    INDEX 00 12:39:46
    INDEX 01 12:41:46
  TRACK 05 AUDIO
    TITLE "I Saw You Dancing (House Radiocut)"
    PERFORMER "Yaki-Da"
    REM REPLAYGAIN_TRACK_GAIN -5.46 dB
    REM REPLAYGAIN_TRACK_PEAK 0.978363
    INDEX 00 17:21:46
    INDEX 01 17:23:46

Отчет auCDtect Task manager

-----------------------
DON'T MODIFY THIS FILE
-----------------------
PERFORMER: auCDtect Task Manager, ver. 1.5.1RC4 build 1.5.1.5
Copyright (c) 2008-2010 y-soft. All rights reserved
http://y-soft.org
ANALYZER: auCDtect: CD records authenticity detector, version 0.8.2
Copyright (c) 2004 Oleg Berngardt. All rights reserved.
Copyright (c) 2004 Alexander Djourik. All rights reserved.
FILE: Yaki-Da - I Saw You Dancing (CDM) (1994) (Metronome).flac
  Size: 153225626 Hash: 897FB54A58265260A0C30D75929B5D24 Accuracy: -m0
  Conclusion: CDDA 100%
  Signature: 991DF463F128E0AED6DB22DCA0951E60012ADBB8

1994 - Show Me Love Продолжительность&#58; 00&#58;11&#58;36 APE (tracks+.cue&#41;

Трeклист:
01. Show Me Love (Acoustic Version) (3:29)
02. Show Me Love (Extended Mix) (4:40)
03. Show Me Love (Radio Edit) (3:31)

Содержание индексной карты (.CUE&#41;

REM COMMENT "CUETools generated dummy CUE sheet"
FILE "01. Yaki-Da - Show Me Love (Acoustic Version).ape" WAVE
  TRACK 01 AUDIO
    INDEX 01 00:00:00
FILE "02. Yaki-Da - Show Me Love (Extended Mix).ape" WAVE
  TRACK 02 AUDIO
    INDEX 01 00:00:00
FILE "03. Yaki-Da - Show Me Love (Radio Edit).ape" WAVE
  TRACK 03 AUDIO
    INDEX 01 00:00:00

Отчет auCDtect Task manager

-----------------------
DON'T MODIFY THIS FILE
-----------------------
PERFORMER: auCDtect Task Manager, ver. 1.5.1RC6 build 1.5.1.7
Copyright (c) 2008-2010 y-soft. All rights reserved
http://y-soft.org
ANALYZER: auCDtect: CD records authenticity detector, version 0.8.2
Copyright (c) 2004 Oleg Berngardt. All rights reserved.
Copyright (c) 2004 Alexander Djourik. All rights reserved.
FILE: 01. Yaki-Da - Show Me Love (Acoustic Version).ape
  Size: 18204392 Hash: A37E990600392A5F8A365B7DA86DC283 Accuracy: -m0
  Conclusion: CDDA 100%
  Signature: 7697C6C0B5DA9BD923865A3F72B3B01DC87A4B35
FILE: 03. Yaki-Da - Show Me Love (Radio Edit).ape
  Size: 21037510 Hash: 9A7D2C95657E4924D3AED6DD6A0B7761 Accuracy: -m0
  Conclusion: CDDA 100%
  Signature: 54696BE19652C5ECF0D437B74F151D8BCBB2F9DA
FILE: 02. Yaki-Da - Show Me Love (Extended Mix).ape
  Size: 25191292 Hash: 73FA84933172A751663AB9FB3B9D6F0F Accuracy: -m0
  Conclusion: CDDA 100%
  Signature: 72749CBBF12C127233C836AE8CDC1047E2CEBA68

1995 - Deep In The Jungle Продолжительность&#58; 00&#58;16&#58;08 FLAC (tracks+.cue&#41;

Трeклист:
01. Deep in the Jungle (Monte X 2) (4:04)
02. Deep in the Jungle (Radiant Mix) (3:53)
03. Deep in the Jungle (Original Mix) (4:13)
04. Deep in the Jungle (Album Version) (4:16)

Отчет EAC

Exact Audio Copy V0.99 prebeta 5 from 4. May 2009
EAC extraction logfile from 2. November 2009, 17:50
Yaki-Da / Deep In The Jungle (CD Maxi)
Used drive  : PIONEER DVD-RW  DVR-215D   Adapter: 1  ID: 0
Read mode               : Secure
Utilize accurate stream : Yes
Defeat audio cache      : Yes
Make use of C2 pointers : No
Read offset correction                      : 48
Overread into Lead-In and Lead-Out          : No
Fill up missing offset samples with silence : Yes
Delete leading and trailing silent blocks   : No
Null samples used in CRC calculations       : Yes
Used interface                              : Installed external ASPI interface
Gap handling                                : Appended to previous track
Used output format              : User Defined Encoder
Selected bitrate                : 128 kBit/s
Quality                         : High
Add ID3 tag                     : No
Command line compressor         : C:\Programmer\FLAC\flac.exe
Additional command line options : -V -8 -T "artist=%a" -T "title=%t" -T "album=%g" -T "date=%y" -T "tracknumber=%n" -T "genre=%m" %s
TOC of the extracted CD
     Track |   Start  |  Length  | Start sector | End sector
    ---------------------------------------------------------
        1  |  0:00.00 |  4:03.62 |         0    |    18286
        2  |  4:03.62 |  3:52.38 |     18287    |    35724
        3  |  7:56.25 |  4:13.02 |     35725    |    54701
        4  | 12:09.27 |  4:16.00 |     54702    |    73901
Track  1
     Filename D:\Download\Rippet Musik\Yaki-Da - 1995 - Deep In The Jungle (CD Maxi)\01 - Yaki-Da - Deep In The Jungle [Monte X 2].wav
     Pre-gap length  0:00:02.00
     Peak level 97.7 %
     Track quality 100.0 %
     Test CRC F17B277B
     Copy CRC F17B277B
     Track not present in AccurateRip database
     Copy OK
Track  2
     Filename D:\Download\Rippet Musik\Yaki-Da - 1995 - Deep In The Jungle (CD Maxi)\02 - Yaki-Da - Deep In The Jungle [Radiant Mix].wav
     Pre-gap length  0:00:01.49
     Peak level 97.7 %
     Track quality 100.0 %
     Test CRC 400AF1CE
     Copy CRC 400AF1CE
     Track not present in AccurateRip database
     Copy OK
Track  3
     Filename D:\Download\Rippet Musik\Yaki-Da - 1995 - Deep In The Jungle (CD Maxi)\03 - Yaki-Da - Deep In The Jungle [Original Mix].wav
     Pre-gap length  0:00:01.57
     Peak level 95.1 %
     Track quality 99.9 %
     Test CRC 28BADF73
     Copy CRC 28BADF73
     Track not present in AccurateRip database
     Copy OK
Track  4
     Filename D:\Download\Rippet Musik\Yaki-Da - 1995 - Deep In The Jungle (CD Maxi)\04 - Yaki-Da - Deep In The Jungle [Album Version].wav
     Pre-gap length  0:00:01.45
     Peak level 89.7 %
     Track quality 99.8 %
     Test CRC 72349971
     Copy CRC 72349971
     Track not present in AccurateRip database
     Copy OK
None of the tracks are present in the AccurateRip database
No errors occurred
End of status report

Содержание индексной карты (.CUE&#41;

REM COMMENT "CUETools generated dummy CUE sheet"
FILE "01. Yaki-Da - Deep in the Jungle (Monte X 2).flac" WAVE
  TRACK 01 AUDIO
    INDEX 01 00:00:00
FILE "02. Yaki-Da - Deep in the Jungle (Radiant Mix).flac" WAVE
  TRACK 02 AUDIO
    INDEX 01 00:00:00
FILE "03. Yaki-Da - Deep in the Jungle (Original Mix).flac" WAVE
  TRACK 03 AUDIO
    INDEX 01 00:00:00
FILE "04. Yaki-Da - Deep in the Jungle (Album Version).flac" WAVE
  TRACK 04 AUDIO
    INDEX 01 00:00:00

Отчет auCDtect Task manager

-----------------------
DON'T MODIFY THIS FILE
-----------------------
PERFORMER: auCDtect Task Manager, ver. 1.5.1RC6 build 1.5.1.7
Copyright (c) 2008-2010 y-soft. All rights reserved
http://y-soft.org
ANALYZER: auCDtect: CD records authenticity detector, version 0.8.2
Copyright (c) 2004 Oleg Berngardt. All rights reserved.
Copyright (c) 2004 Alexander Djourik. All rights reserved.
FILE: 02. Yaki-Da - Deep in the Jungle (Radiant Mix).flac
  Size: 25113057 Hash: 1EE567400F18A93167108AA7770720B5 Accuracy: -m0
  Conclusion: CDDA 100%
  Signature: E049327515DC17A78C5B31CA0CCB5034E313630C
FILE: 01. Yaki-Da - Deep in the Jungle (Monte X 2).flac
  Size: 27581700 Hash: 8B796B04FFC28AB282AD9DB423E21A82 Accuracy: -m0
  Conclusion: CDDA 100%
  Signature: D16DAA5D630D99121F85D41479C8E70D6AD28575
FILE: 04. Yaki-Da - Deep in the Jungle (Album Version).flac
  Size: 26381858 Hash: B4E92279B1D9C519FE8C9D052D40F3C1 Accuracy: -m0
  Conclusion: CDDA 100%
  Signature: 3C1FBD6B1AF027F7DDD0B0E6EFA48D802F47332B
FILE: 03. Yaki-Da - Deep in the Jungle (Original Mix).flac
  Size: 24357327 Hash: 2DD07E71BB718D3FD1655299B067DF1E Accuracy: -m0
  Conclusion: CDDA 100%
  Signature: D82D33BDA7FB2FEAB8449EABE0BE2901010FF67B

1995 - Pride Of Africa Продолжительность&#58; 00&#58;21&#58;14 FLAC (tracks+.cue&#41;

Трeклист:
01. Pride of Africa (Radio Version) (3:39)
02. Pride of Africa (Radiant Remix) (4:38)
03. Pride of Africa (Rapino Brothers Latin Version) (7:23)
04. Pride of Africa (Rapino Brothers Mental Mix) (5:53)

Отчёт ЕАС

Exact Audio Copy V0.99 prebeta 5 from 4. May 2009
EAC extraction logfile from 2. November 2009, 17:36
Yaki-Da / Pride of Africa
Used drive  : PIONEER DVD-RW  DVR-215D   Adapter: 1  ID: 0
Read mode               : Secure
Utilize accurate stream : Yes
Defeat audio cache      : Yes
Make use of C2 pointers : No
Read offset correction                      : 48
Overread into Lead-In and Lead-Out          : No
Fill up missing offset samples with silence : Yes
Delete leading and trailing silent blocks   : No
Null samples used in CRC calculations       : Yes
Used interface                              : Installed external ASPI interface
Gap handling                                : Appended to previous track
Used output format              : User Defined Encoder
Selected bitrate                : 128 kBit/s
Quality                         : High
Add ID3 tag                     : No
Command line compressor         : C:\Programmer\FLAC\flac.exe
Additional command line options : -V -8 -T "artist=%a" -T "title=%t" -T "album=%g" -T "date=%y" -T "tracknumber=%n" -T "genre=%m" %s
TOC of the extracted CD
     Track |   Start  |  Length  | Start sector | End sector
    ---------------------------------------------------------
        1  |  0:00.32 |  3:39.25 |        32    |    16481
        2  |  3:39.57 |  4:38.20 |     16482    |    37351
        3  |  8:18.02 |  7:23.28 |     37352    |    70604
        4  | 15:41.30 |  5:52.57 |     70605    |    97061
Track  1
     Filename D:\Download\Rippet Musik\Yaki-Da - 1995 - Pride of Africa\01 - Yaki-Da - Pride of Africa (radio version).wav
     Pre-gap length  0:00:02.42
     Peak level 97.8 %
     Track quality 100.0 %
     Test CRC A12AF437
     Copy CRC A12AF437
     Track not present in AccurateRip database
     Copy OK
Track  2
     Filename D:\Download\Rippet Musik\Yaki-Da - 1995 - Pride of Africa\02 - Yaki-Da - Pride of Africa (radiant remix).wav
     Pre-gap length  0:00:00.30
     Peak level 97.8 %
     Track quality 99.9 %
     Test CRC D2F6C197
     Copy CRC D2F6C197
     Track not present in AccurateRip database
     Copy OK
Track  3
     Filename D:\Download\Rippet Musik\Yaki-Da - 1995 - Pride of Africa\03 - Yaki-Da - Pride of Africa (rapino brothers latin version).wav
     Pre-gap length  0:00:04.20
     Peak level 97.8 %
     Track quality 100.0 %
     Test CRC F195B938
     Copy CRC F195B938
     Track not present in AccurateRip database
     Copy OK
Track  4
     Filename D:\Download\Rippet Musik\Yaki-Da - 1995 - Pride of Africa\04 - Yaki-Da - Pride of Africa (rapino brothers mental mix).wav
     Pre-gap length  0:00:01.45
     Peak level 95.9 %
     Track quality 100.0 %
     Test CRC 7D9EC757
     Copy CRC 7D9EC757
     Track not present in AccurateRip database
     Copy OK
None of the tracks are present in the AccurateRip database
No errors occurred
End of status report

Содержание индексной карты (.CUE&#41;

REM COMMENT "CUETools generated dummy CUE sheet"
FILE "01. Yaki-Da - Pride of Africa (Radio Version).flac" WAVE
  TRACK 01 AUDIO
    INDEX 01 00:00:00
FILE "02. Yaki-Da - Pride of Africa (Radiant Remix).flac" WAVE
  TRACK 02 AUDIO
    INDEX 01 00:00:00
FILE "03. Yaki-Da - Pride of Africa (Rapino Brothers Latin Version).flac" WAVE
  TRACK 03 AUDIO
    INDEX 01 00:00:00
FILE "04. Yaki-Da - Pride of Africa (Rapino Brothers Mental Mix).flac" WAVE
  TRACK 04 AUDIO
    INDEX 01 00:00:00

Отчёт auCDtect Task manager

-----------------------
DON'T MODIFY THIS FILE
-----------------------
PERFORMER: auCDtect Task Manager, ver. 1.5.1RC6 build 1.5.1.7
Copyright (c) 2008-2010 y-soft. All rights reserved
http://y-soft.org
ANALYZER: auCDtect: CD records authenticity detector, version 0.8.2
Copyright (c) 2004 Oleg Berngardt. All rights reserved.
Copyright (c) 2004 Alexander Djourik. All rights reserved.
FILE: 02. Yaki-Da - Pride of Africa (Radiant Remix).flac
  Size: 30328690 Hash: 797E235562F8A1ECBD83A03030C7793B Accuracy: -m0
  Conclusion: CDDA 100%
  Signature: 78EC419D9A9965E90F0BBBDCC8EA98405513CB01
FILE: 01. Yaki-Da - Pride of Africa (Radio Version).flac
  Size: 24690561 Hash: 16314207272E78EE62EFD60A1B6DB1BF Accuracy: -m0
  Conclusion: CDDA 100%
  Signature: C28A821679196EA5F56A0FA3AA0008B090122B97
FILE: 04. Yaki-Da - Pride of Africa (Rapino Brothers Mental Mix).flac
  Size: 42439701 Hash: 15D3350215C84E30D4051B3ED39C42E8 Accuracy: -m0
  Conclusion: CDDA 100%
  Signature: 94B4CE399BEA79BE7245034092B7C3AD98137639
FILE: 03. Yaki-Da - Pride of Africa (Rapino Brothers Latin Version).flac
  Size: 53086981 Hash: E7E3284E852292C5BAF0F7CCDAD0EA50 Accuracy: -m0
  Conclusion: CDDA 100%
  Signature: E705B87552B60331927B4E1199B832E08D318605
-
Яндекс.Метрика
Рейтинг@Mail.ru