Plazma - 2 альбома (2000-2002) [FLAC|Lossless]<Pop, Synth-pop, Pop-rock>

 

Создавать темы 17-Дек-2014 11:56

-Plazma - 2 альбома (2000-2002)- Год: 2000-2002
Жанр: Pop, Synth-pop, Pop-rock
Продолжительность: 01:34:50
Кодек: FLAC
Битрейт: Lossless
Тип раздачи: image+.cue
Наличие сканов в содержимом раздачи: да-Plazma — музыкальная группа из России. В её состав входят Роман Черницын (вокал, музыка, тексты), Максим Постельный (клавишные, бэк-вокал, музыка, аранжировки), Николай Трофимов (гитара) и Александр Лучков (скрипка, гитара). Отличительной чертой этого коллектива является то, что они стали одной из первых российских поп-групп, исполняющих свои песни исключительно на английском языке для русскоговорящей аудитории. Стиль исполнения колеблется от синти-попа до поп-рока.
Известность приобрели после выпуска первого сингла Take My Love, который стал активным участником многих чартов. Первые два альбома — «Take My Love» и «607» — были проданы тиражом более чем в 1 000 000 копий.
-

2000 - Take My Love

  • Label: Танцевальный Рай ‎– LP-076-00
  • Format: CD, Album
  • Country: Russia
Прoдолжительность: 00:46:17
Трек лист:
01. Take My Love [03.41]
02. The Sweetest Surrender [04.20]
03. Memories [03.32]
04. Jump In My Car [04.19]
05. Fading Like A Rose [04.16]
06. Big City Lights [04.13]
07. Storm [04.27]
08. Lady Linda [03.54]
09. Black Bird Fly [04.26]
10. Home [04.37]
11. Angie (Gimme Fire) [04.28]

Отчёт ЕАС&#58;

Exact Audio Copy V1.0 beta 2 from 29. April 2011
EAC extraction logfile from 11. September 2011, 6:20
Plazma / Take My Love
Used drive  : PIONEER DVD-RW  DVR-212   Adapter: 8  ID: 0
Read mode               : Secure
Utilize accurate stream : Yes
Defeat audio cache      : Yes
Make use of C2 pointers : No
Read offset correction                      : 48
Overread into Lead-In and Lead-Out          : No
Fill up missing offset samples with silence : Yes
Delete leading and trailing silent blocks   : No
Null samples used in CRC calculations       : Yes
Used interface                              : Installed external ASPI interface
Used output format : Internal WAV Routines
Sample format      : 44.100 Hz; 16 Bit; Stereo
TOC of the extracted CD
     Track |   Start  |  Length  | Start sector | End sector
    ---------------------------------------------------------
        1  |  0:00.00 |  3:41.71 |         0    |    16645
        2  |  3:41.71 |  4:20.26 |     16646    |    36171
        3  |  8:02.22 |  3:32.20 |     36172    |    52091
        4  | 11:34.42 |  4:19.46 |     52092    |    71562
        5  | 15:54.13 |  4:16.09 |     71563    |    90771
        6  | 20:10.22 |  4:13.62 |     90772    |   109808
        7  | 24:24.09 |  4:27.18 |    109809    |   129851
        8  | 28:51.27 |  3:54.00 |    129852    |   147401
        9  | 32:45.27 |  4:26.59 |    147402    |   167410
       10  | 37:12.11 |  4:37.19 |    167411    |   188204
       11  | 41:49.30 |  4:28.18 |    188205    |   208322
Range status and errors
Selected range
     Filename J:\MP3\Plazma (FLAC)\2000 - Take My Love (подарочное издание)\Plazma - Take My Love.wav
     Peak level 100.0 %
     Extraction speed 6.7 X
     Range quality 100.0 %
     Test CRC 759B3DD8
     Copy CRC 759B3DD8
     Copy OK
No errors occurred
AccurateRip summary
Track  1  accurately ripped (confidence 4)  [963648C7]  (AR v1)
Track  2  accurately ripped (confidence 4)  [0FE65AAF]  (AR v1)
Track  3  accurately ripped (confidence 4)  [F039B7CD]  (AR v1)
Track  4  accurately ripped (confidence 4)  [0F93F6F5]  (AR v1)
Track  5  accurately ripped (confidence 4)  [22FBC94E]  (AR v1)
Track  6  accurately ripped (confidence 4)  [330F0D34]  (AR v1)
Track  7  accurately ripped (confidence 4)  [F778A326]  (AR v1)
Track  8  accurately ripped (confidence 4)  [91A7AFE6]  (AR v1)
Track  9  accurately ripped (confidence 4)  [CF6A975D]  (AR v1)
Track 10  accurately ripped (confidence 4)  [01B41A15]  (AR v1)
Track 11  accurately ripped (confidence 4)  [986750DB]  (AR v1)
All tracks accurately ripped
End of status report
==== Log checksum DFC4CE52C22828AEFB8A16FB9CBFD0937158EB91308D489C9549D91A10FBBF2F ====

Отчёт auCDtect Task manager&#58;

-----------------------
DON'T MODIFY THIS FILE
-----------------------
PERFORMER: auCDtect Task Manager, ver. 1.5.1RC4 build 1.5.1.5
Copyright (c) 2008-2010 y-soft. All rights reserved
http://y-soft.org
ANALYZER: auCDtect: CD records authenticity detector, version 0.8.2
Copyright (c) 2004 Oleg Berngardt. All rights reserved.
Copyright (c) 2004 Alexander Djourik. All rights reserved.
FILE: Plazma - Take My Love.flac
  Size: 340729061 Hash: 84E62F6EF5B587F236432BB94C4C14CA Accuracy: -m0
  Conclusion: CDDA 100%
  Signature: E7A63BA69723BEE406792F9B1A5A59CB8436003C
-

2002 - 607

  • Label: CD Land ‎– CDLR 0233 CD
  • Format: CD, Album, Black CD
  • Country: Russia
Прoдолжительность: 00:48:33
Трек лист:
01. You’ll Never Meet An Angel [05.52]
02. 607 [04.03]
03. Listen To The Rain [03.31]
04. You Know (My Recent Desease) [04.02]
05. Lonely [04.53]
06. One Caress [04.32]
07. A Bit Of Perfection [05.45]
08. Forever Young [03.42]
09. I’ll Be Your Lucky Love [04.17]
10. An Ordinary Miracle [04.09]
11. Listen To The Wind [03.42]

Отчёт ЕАС&#58;

Exact Audio Copy V1.0 beta 2 from 29. April 2011
EAC extraction logfile from 20. June 2011, 13:53
Plazma / 607
Used drive  : PIONEER DVD-RW  DVR-212   Adapter: 8  ID: 0
Read mode               : Secure
Utilize accurate stream : Yes
Defeat audio cache      : Yes
Make use of C2 pointers : No
Read offset correction                      : 48
Overread into Lead-In and Lead-Out          : No
Fill up missing offset samples with silence : Yes
Delete leading and trailing silent blocks   : No
Null samples used in CRC calculations       : Yes
Used interface                              : Installed external ASPI interface
Used output format : Internal WAV Routines
Sample format      : 44.100 Hz; 16 Bit; Stereo
TOC of the extracted CD
     Track |   Start  |  Length  | Start sector | End sector
    ---------------------------------------------------------
        1  |  0:00.00 |  5:52.61 |         0    |    26460
        2  |  5:52.61 |  4:03.17 |     26461    |    44702
        3  |  9:56.03 |  3:31.21 |     44703    |    60548
        4  | 13:27.24 |  4:02.68 |     60549    |    78766
        5  | 17:30.17 |  4:53.59 |     78767    |   100800
        6  | 22:24.01 |  4:32.06 |    100801    |   121206
        7  | 26:56.07 |  5:45.17 |    121207    |   147098
        8  | 32:41.24 |  3:42.61 |    147099    |   163809
        9  | 36:24.10 |  4:17.32 |    163810    |   183116
       10  | 40:41.42 |  4:09.48 |    183117    |   201839
       11  | 44:51.15 |  3:42.03 |    201840    |   218492
Range status and errors
Selected range
     Filename J:\MP3\Plazma (FLAC)\2002 - 607 (Black CD)\Plazma - 607.wav
     Peak level 98.8 %
     Extraction speed 7.0 X
     Range quality 100.0 %
     Test CRC 858A8412
     Copy CRC 858A8412
     Copy OK
No errors occurred
AccurateRip summary
Track  1  accurately ripped (confidence 2)  [5A5CBF73]  (AR v1)
Track  2  accurately ripped (confidence 2)  [83F8D22D]  (AR v1)
Track  3  accurately ripped (confidence 2)  [E597F4E1]  (AR v1)
Track  4  accurately ripped (confidence 2)  [02C1B0CB]  (AR v1)
Track  5  accurately ripped (confidence 2)  [D69FF24B]  (AR v1)
Track  6  accurately ripped (confidence 2)  [C1362791]  (AR v1)
Track  7  accurately ripped (confidence 2)  [1B3E0722]  (AR v1)
Track  8  accurately ripped (confidence 2)  [D5347655]  (AR v1)
Track  9  accurately ripped (confidence 2)  [33727740]  (AR v1)
Track 10  accurately ripped (confidence 2)  [0A8B4B4D]  (AR v1)
Track 11  accurately ripped (confidence 2)  [916891AD]  (AR v1)
All tracks accurately ripped
End of status report
==== Log checksum 5B09E80F0EC7B16E92121BED62B903563B43C7908DEEF10B5BE56FA2E490A569 ====

Отчёт auCDtect Task manager&#58;

-----------------------
DON'T MODIFY THIS FILE
-----------------------
PERFORMER: auCDtect Task Manager, ver. 1.5.1RC4 build 1.5.1.5
Copyright (c) 2008-2010 y-soft. All rights reserved
http://y-soft.org
ANALYZER: auCDtect: CD records authenticity detector, version 0.8.2
Copyright (c) 2004 Oleg Berngardt. All rights reserved.
Copyright (c) 2004 Alexander Djourik. All rights reserved.
FILE: Plazma - 607.flac
  Size: 368785313 Hash: 9E391C1C326D3EE9E325064C25001CD7 Accuracy: -m0
  Conclusion: CDDA 100%
  Signature: 10DC95D3233B0565CDAEB5E5F6EC12C645DADA9C
-
Яндекс.Метрика
Рейтинг@Mail.ru